Робін Гуд / Robin Hood (1973) 720p Ukr/Eng | Sub Eng

Нові коментарі

Нова тема   Відповісти
Автор Повідомлення
sergiyko.5 
VIP


З нами з: 25.02.16
Востаннє: 24.02.20
Повідомлень: 2949

2019-10-18 20:40  
Робін Гуд / Robin Hood (1973) 720p Ukr/Eng | Sub Eng

Робін Гуд / Robin Hood (1973) 720p Ukr/Eng | Sub Eng

Жанр: мелодрама, комедія, пригоди
Країна: США
Режисер: Вольфганг Райтерман

Сюжет:
Ласкаво просимо в дрімучий Шервудський ліс, де ти зустрінеш хоробре й забавне лисеня на ім’я Робін Гуд і його кращого друга Крихітку Джона - великого добродушного ведмедя. Цю веселу компанію давно розшукує шериф Нотінгема. Він готує друзям пастку: на турнірі лучників Робін Гуда буде чекати засідка. Але відважне лисеня все одно збирається брати участь у змаганні: адже тільки там у нього є шанс побачити красуню Маріан. І ось турнір почався, однак шериф ніяк не може впізнати серед учасників переодягненого Робін Гуда. Правда, один точний постріл здатний відразу видати найкращого стрільця в королівстві.




Тривалість: 01:23:02
Якість:

Відео: кодек: розмір кадру: 1200 х 720 бітрейт: 6500 кб/с
Аудіо # 1: мова: українська переклад: професійний дубльований кодек: 2.0 бітрейт: 192 кб/с
Аудіо # 2: мова: англійська переклад: оригінал кодек: 5.1 бітрейт: 1509 кб/с
Субтитри: мова: англійська тип: програмні (м'які) формат: *.srt
Про файл:
General
Unique ID : 25865306313283990980699776236093735586 (0x13757A0F3BDDF212CEE4623A533082A2)
Complete name : D:\Documents\Torrents\MULT\Robin.Hood.1973.720p..Ukr.Eng.
Format :
Format version : Version 4
File size : 5.00 GiB
Duration : 1 h 23 min
Overall bit rate : 8 624 kb/s
Encoded date : UTC 2019-10-18 18:22:24
Writing application : v36.0.0 ('Is That Jazz?') 64-bit
Writing library : libebml v1.3.9 + v1.5.2

Video
ID : 1
Format : AVC
Format/Info : Advanced Video Codec
Format profile : [email protected]
Format settings : CABAC / 9 Ref Frames
Format settings, CABAC : Yes
Format settings, Reference : 9 frames
Codec ID : V_MPEG4/ISO/AVC
Duration : 1 h 23 min
Bit rate : 6 920 kb/s
Width : 1 200 pixels
Height : 720 pixels
Display aspect ratio : 5:3
Frame rate mode : Constant
Frame rate : 23.976 (24000/1001) FPS
Color space : YUV
Chroma subsampling : 4:2:0
Bit depth : 8 bits
Scan type : Progressive
Bits/(Pixel*Frame) : 0.334
Stream size : 4.01 GiB (80%)
Writing library : core 130 r2273 b3065e6
Encoding settings : cabac=1 / ref=9 / deblock=1:-3:-3 / analyse=0x3:0x113 / me=tesa / subme=10 / psy=1 / psy_rd=0.80:0.00 / mixed_ref=1 / me_range=32 / chroma_me=1 / trellis=2 / 8x8dct=1 / cqm=0 / deadzone=21,11 / fast_pskip=0 / chroma_qp_offset=-2 / threads=12 / lookahead_threads=2 / sliced_threads=0 / nr=0 / decimate=1 / interlaced=0 / bluray_compat=0 / constrained_intra=0 / bframes=8 / b_pyramid=2 / b_adapt=2 / b_bias=0 / direct=3 / weightb=1 / open_gop=0 / weightp=2 / keyint=250 / keyint_min=25 / scenecut=40 / intra_refresh=0 / rc=crf / mbtree=0 / crf=17.3 / qcomp=0.75 / qpmin=0 / qpmax=69 / qpstep=4 / ip_ratio=1.40 / pb_ratio=1.30 / aq=1:0.90
Language : English
Default : Yes
Forced : No
Color range : Limited
Matrix coefficients : BT.709

Audio #1
ID : 2
Format : AC-3
Format/Info : Audio Coding 3
Commercial name : Dolby Digital
Codec ID : A_AC3
Duration : 1 h 23 min
Bit rate mode : Constant
Bit rate : 192 kb/s
Channel(s) : 2 channels
Channel layout : L R
Sampling rate : 48.0 kHz
Frame rate : 31.250 FPS (1536 SPF)
Bit depth : 16 bits
Compression mode : Lossy
Stream size : 114 MiB (2%)
Title : DUB 2.0ch
Language : Ukrainian
Service kind : Complete Main
Default : Yes
Forced : Yes

Audio #2
ID : 3
Format :
Format/Info : Digital Theater Systems
Codec ID : A_DTS
Duration : 1 h 23 min
Bit rate mode : Constant
Bit rate : 1 509 kb/s
Channel(s) : 6 channels
Channel layout : C L R Ls Rs LFE
Sampling rate : 48.0 kHz
Frame rate : 93.750 FPS (512 SPF)
Bit depth : 24 bits
Compression mode : Lossy
Stream size : 896 MiB (17%)
Title : Original 5.1
Language : English
Default : No
Forced : No

Text
ID : 4
Format : UTF-8
Codec ID : S_TEXT/UTF8
Codec ID/Info : UTF-8 Plain Text
Duration : 1 h 22 min
Bit rate : 51 b/s
Count of elements : 977
Stream size : 31.3 KiB (0%)
Language : English
Default : No
Forced : No

Menu
00:00:00.000 : en:00:00:00.000
00:03:31.962 : en:00:03:31.962
00:09:10.133 : en:00:09:10.133
00:15:09.617 : en:00:15:09.617
00:20:57.089 : en:00:20:57.089
00:27:01.537 : en:00:27:01.537
00:31:22.172 : en:00:31:22.172
00:37:40.049 : en:00:37:40.049
00:42:00.351 : en:00:42:00.351
00:48:57.643 : en:00:48:57.643
00:51:08.983 : en:00:51:08.983
00:55:10.432 : en:00:55:10.432
01:03:05.198 : en:01:03:05.198
01:05:22.001 : en:01:05:22.001
01:20:30.743 : en:01:20:30.743
Скріншоти:


Придбання, синхронізація: sergiyko


Срібний реліз (на рейтинг впливає 50% завантаженого)
 Трекер:    Зареєстрований   

Завантажити / скачати мультфільм українською



відео для новачків



 Зареєстрований:   2019-10-18 20:40
 Розмір:   5 GB 
 Оцінка мультфільму:   9.9/10 (Голосів: 13)
   
Інші релізи
   Робін Гуд / Robin Hood (1973) 1080p H.265 2xUkr/Eng | Sub Eng -Star-Lord-  4 / 0   4.74 GB   2020-02-11 01:08 
   Робін Гуд / Robin Hood (1973) 1080p Ukr/Eng | Sub Eng sergiyko.5  4 / 0   10.08 GB   2019-10-19 11:52 
   Робін Гуд / Robin Hood (1973) AVC sergiyko.5  4 / 0   1.48 GB   2019-10-19 11:45 
   Робін Гуд / Robin Hood (1973) 720p Ukr/Eng | sub Eng радик  5 / 0   4.11 GB   2018-05-16 14:27 
Ваш часовий пояс: GMT + 2 Години

Нова тема   Відповісти