Пригоди Вінні Пуха / The Many Adventures of Winnie the Pooh (1977) 1080p Ukr/Eng | Sub Eng

Нові коментарі

Нова тема   Відповісти
Автор Повідомлення
sergiyko.5 
Забанено
Забанено


З нами з: 25.02.16
Востаннє: 29.10.20
Повідомлень: 3648

2019-10-18 17:59  
Всі одноіменні релізи на трекері

Пригоди Вінні Пуха / The Many Adventures of Winnie the Pooh (1977) 1080p Ukr/Eng | Sub Eng


Пригоди Вінні Пуха / The Many Adventures of Winnie the Pooh (1977) 1080p Ukr/Eng | Sub Eng

Жанр: мюзікл, комедія
Країна: США
Режисер: Джон Лоунсбері, Вольфганг Райтерман

Режисер дубляжу: Алла Пасікова
Музичний редактор: Тетяна Піроженко
Перекладач: Роман Дяченко
Автор синхронного тексту: Роман Дяченко
Перекладач пісень: Роман Дяченко
Звукорежисер: Михайло Угрин
Звукорежисери перезапису: Всеволод Солнцев, Михайло Угрин
Творчий консультант: Александра Яніковськ

Ролі дублювали: Вінні - Дмитро Завадський, Поросятко - Євген Малуха, Тигрик - Юрій Коваленко, Кролик - Микола Луценко, Віслючок - Олександр Ігнатуша, Крістофер Робін - Єгор Олрлов, Сова - Євген Лунченко, Кенга - Лариса Русняк, Ру - Олексій Сморігін, Оповідач - Василь Мазур, Ховрах - Георгій Ковальонок, співачка - Валентина Скорнякова, співачка - Тетяна Піроженко, співак - Сергій Юрченко, співак - Євген Анишко


Сюжет:
Вінні Пух - герой дітей багатьох поколінь. Вигаданий Олександром Мілном, ведмедик пережив багато втілень. Найближчою до оригіналу є версія студії Дісней. Глядачі можуть насолоджуватися пригодами Вінні та його друзів, створеними найкращими мультиплікаторами.




Тривалість: 01:13:59
Якість:

Відео: кодек: розмір кадру: 1792 х 720 бітрейт: 6800 кб/с
Аудіо # 1: мова: українська озвучення: професійне дубльоване кодек: 5.1 бітрейт: 384 кб/с | Le Doyen |

Аудіо # 2: мова: англійська озвучення: оригінал кодек: 5.1 бітрейт: 1509 кб/с
Субтитри: мова: англійська тип: програмні (м'які) формат: *.srt
Про файл:
General
Unique ID : 80354696884267084336793494062267195512 (0x3C73C06EC420E942D5B2DB380B916078)
Complete name : D:\Documents\Torrents\FILMS\The.Many.Adventures.of.Winnie.the.Pooh.1977.1080p..Ukr.Eng.
Format :
Format version : Version 4
File size : 4.48 GiB
Duration : 1 h 14 min
Overall bit rate : 8 646 kb/s
Movie name : The Many Adventures of Winnie the Pooh 1977 by sergiyko
Encoded date : UTC 2020-08-20 06:17:46
Writing application : v47.0.0 ('Black Flag') 64-bit
Writing library : libebml v1.3.10 + v1.5.2
Cover : Yes
Attachments : cover.jpeg

Video
ID : 1
Format : AVC
Format/Info : Advanced Video Codec
Format profile : [email protected]
Format settings : CABAC / 4 Ref Frames
Format settings, CABAC : Yes
Format settings, Reference : 4 frames
Codec ID : V_MPEG4/ISO/AVC
Duration : 1 h 13 min
Bit rate : 6 761 kb/s
Width : 1 792 pixels
Height : 1 080 pixels
Display aspect ratio : 5:3
Frame rate mode : Constant
Frame rate : 23.976 (24000/1001) FPS
Color space : YUV
Chroma subsampling : 4:2:0
Bit depth : 8 bits
Scan type : Progressive
Bits/(Pixel*Frame) : 0.146
Stream size : 3.49 GiB (78%)
Title : The Many Adventures of Winnie the Pooh 1977
Writing library : core 130 r2273kMod b3065e6
Encoding settings : cabac=1 / ref=4 / deblock=1:-2:-1 / analyse=0x3:0x133 / me=umh / subme=11 / psy=1 / fade_compensate=0.00 / psy_rd=0.60:0.00 / mixed_ref=1 / me_range=32 / chroma_me=1 / trellis=2 / 8x8dct=1 / cqm=0 / deadzone=21,11 / fast_pskip=0 / chroma_qp_offset=-2 / threads=12 / lookahead_threads=2 / sliced_threads=0 / nr=0 / decimate=1 / interlaced=0 / bluray_compat=0 / constrained_intra=0 / bframes=9 / b_pyramid=2 / b_adapt=2 / b_bias=0 / direct=1 / weightb=1 / open_gop=0 / weightp=2 / keyint=250 / keyint_min=23 / scenecut=40 / intra_refresh=0 / rc_lookahead=70 / rc=crf / mbtree=0 / crf=18.0900 / qcomp=0.80 / qpmin=0 / qpmax=69 / qpstep=4 / vbv_maxrate=50000 / vbv_bufsize=62500 / crf_max=0.0 / nal_hrd=none / ip_ratio=1.40 / pb_ratio=1.30 / aq=3:0.90
Language : English
Default : Yes
Forced : No
Color range : Limited
Color primaries : BT.709
Transfer characteristics : BT.709
Matrix coefficients : BT.709

Audio #1
ID : 2
Format : AC-3
Format/Info : Audio Coding 3
Commercial name : Dolby Digital
Codec ID : A_AC3
Duration : 1 h 14 min
Bit rate mode : Constant
Bit rate : 384 kb/s
Channel(s) : 6 channels
Channel layout : L R C LFE Ls Rs
Sampling rate : 48.0 kHz
Frame rate : 31.250 FPS (1536 SPF)
Compression mode : Lossy
Stream size : 204 MiB (4%)
Title : DUB 5.1ch | Le Doyen
Language : Ukrainian
Service kind : Complete Main
Default : Yes
Forced : Yes

Audio #2
ID : 3
Format :
Format/Info : Digital Theater Systems
Codec ID : A_DTS
Duration : 1 h 14 min
Bit rate mode : Constant
Bit rate : 1 509 kb/s
Channel(s) : 6 channels
Channel layout : C L R Ls Rs LFE
Sampling rate : 48.0 kHz
Frame rate : 93.750 FPS (512 SPF)
Bit depth : 24 bits
Compression mode : Lossy
Stream size : 800 MiB (17%)
Title : Original 5.1
Language : English
Default : No
Forced : No

Text #1
ID : 4
Format : UTF-8
Codec ID : S_TEXT/UTF8
Codec ID/Info : UTF-8 Plain Text
Duration : 1 h 12 min
Bit rate : 61 b/s
Count of elements : 926
Stream size : 32.5 KiB (0%)
Title : SRT, Full
Language : English
Default : No
Forced : No

Text #2
ID : 5
Format : UTF-8
Codec ID : S_TEXT/UTF8
Codec ID/Info : UTF-8 Plain Text
Duration : 1 h 12 min
Bit rate : 14 b/s
Count of elements : 152
Stream size : 7.84 KiB (0%)
Title : SRT, (Pooh's Pop-Up Fun Facts)
Language : English
Default : No
Forced : No

Menu
00:00:00.000 : en:01. Open Credits / "Winnie the Pooh"
00:03:14.360 : en:02. Winnie the Pooh and the Honey Tree
00:04:04.243 : en:03. "Up, Down, Touch the Ground"
00:05:59.734 : en:04. "Rumbly in My Tumbly"
00:07:38.332 : en:05. "Little Black Rain Cloud"
00:13:47.827 : en:06. Pooh Pays a Visit to Rabbit
00:16:43.585 : en:07. Owl Tries to Help
00:19:14.319 : en:08. Pooh Remains Stuck
00:23:37.541 : en:09. Today Is the Day!
00:25:49.714 : en:10. Winnie the Pooh and the Blustery Day
00:30:10.892 : en:11. Piglet and Pooh Visit Owl
00:33:02.480 : en:12. A Blustery Night and a New Arrival
00:36:36.569 : en:13. "The Wonderful Thing About Tiggers"
00:36:51.709 : en:14. "Heffalumps and Woozles"
00:41:20.311 : en:15. "The Rain, Rain, Rain, Came Down, Down, Down"
00:45:12.000 : en:16. A Hero Party ("Hip Hooray for Winnie the Pooh")
00:49:33.720 : en:17. Winnie the Pooh and Tigger Too
00:55:36.958 : en:18. Lost!
01:00:29.125 : en:19. The First Snowfall
01:04:10.972 : en:20. Pooh Is Having a Problem
01:11:35.749 : en:21. The Final Chapter
Скріншоти:


Придбання, синхронізація: sergiyko


Срібний реліз (на рейтинг впливає 50% завантаженого)
 Трекер:    Зареєстрований   

Завантажити / скачати мультфільм українською



відео для новачків



 Зареєстрований:   2020-08-20 08:27
 Розмір:   4.48 GB 
 Оцінка мультфільму:   9.9/10 (Голосів: 14)
   
bot 
робот


З нами з: 30.09.07
Востаннє: 26.05.05
Повідомлень: 27309

2019-10-18 17:59  
Тему перенесено з Мультфільми в HD до форуму Анонси релізів


sergiyko.5

dimon-2018 
VIP


З нами з: 06.05.18
Востаннє: 04.03.21
Повідомлень: 574

2019-10-19 08:32  
sergiyko.5
український постер

bot 
робот


З нами з: 30.09.07
Востаннє: 26.05.05
Повідомлень: 27309

2019-10-19 12:03  
Тему перенесено з Анонси релізів до форуму Мультфільми в HD


sergiyko.5

sergiyko.5 
Забанено
Забанено


З нами з: 25.02.16
Востаннє: 29.10.20
Повідомлень: 3648

2020-08-20 08:30  
Торент оновлено, українська доріжка має тепер 5.1 каналів
hetzendorf 
Забанено
Забанено


З нами з: 23.07.15
Востаннє: 05.01.21
Повідомлень: 2966

2020-11-16 01:30  
Виправте посилання на imdb https://www.imdb.com/title/tt0076363/

Зберіг собі стару версію з українською дорогою 2.0 бо якраз чітко влазило на стандартний DVD та й 5.1 мені нафіг не потрібний. Якщо пропаде цей реліз — гукніть мене у ПП.

Подивився аби порівняти із совковим мультиком. Оригінал краще, як і очікувалося.
8/10

Ваш часовий пояс: GMT + 2 Години

Нова тема   Відповісти