Робін Гуд / Robin Hood (1973) 1080p Ukr/Eng | Sub Eng

Нові коментарі

Нова тема   Відповісти
Автор Повідомлення
sergiyko.5 
Забанено
Забанено


З нами з: 25.02.16
Востаннє: 29.10.20
Повідомлень: 3648

2019-10-18 17:54  
Всі одноіменні релізи на трекері

Робін Гуд / Robin Hood (1973) 1080p Ukr/Eng | Sub Eng


Робін Гуд / Robin Hood (1973) 1080p Ukr/Eng | Sub Eng

Жанр: мелодрама, комедія, пригоди
Країна: США
Режисер: Вольфганг Райтерман

Сюжет:
Ласкаво просимо в дрімучий Шервудський ліс, де ти зустрінеш хоробре й забавне лисеня на ім’я Робін Гуд і його кращого друга Крихітку Джона - великого добродушного ведмедя. Цю веселу компанію давно розшукує шериф Нотінгема. Він готує друзям пастку: на турнірі лучників Робін Гуда буде чекати засідка. Але відважне лисеня все одно збирається брати участь у змаганні: адже тільки там у нього є шанс побачити красуню Маріан. І ось турнір почався, однак шериф ніяк не може впізнати серед учасників переодягненого Робін Гуда. Правда, один точний постріл здатний відразу видати найкращого стрільця в королівстві.




Тривалість: 01:23:02
Якість:

Відео: кодек: розмір кадру: 1800 х 1080 бітрейт: 10000 кб/с
Аудіо # 1: мова: українська переклад: професійний дубльований кодек: 2.0 бітрейт: 192 кб/с
Аудіо # 2: мова: англійська переклад: оригінал кодек: -HD MA 5.1 бітрейт: 3938 кб/с
Субтитри: мова: англійська тип: програмні (м'які) формат: *.srt
Про файл:
General
Unique ID : 284708207176398814399552676635423510554 (0xD630CE6097A7E18EA23A2EC615AF901A)
Complete name : D:\Documents\Torrents\MULT\Robin.Hood.1973.1080p..Ukr.Eng.
Format :
Format version : Version 4
File size : 10.1 GiB
Duration : 1 h 23 min
Overall bit rate mode : Variable
Overall bit rate : 17.4 Mb/s
Movie name : Robin Hood 1973 1080p by sergiyko
Encoded date : UTC 2019-10-19 09:40:03
Writing application : v36.0.0 ('Is That Jazz?') 64-bit
Writing library : libebml v1.3.9 + v1.5.2
Cover : Yes
Attachments : cover.jpeg

Video
ID : 1
Format : AVC
Format/Info : Advanced Video Codec
Format profile : [email protected]
Format settings : CABAC / 4 Ref Frames
Format settings, CABAC : Yes
Format settings, Reference : 4 frames
Codec ID : V_MPEG4/ISO/AVC
Duration : 1 h 23 min
Bit rate : 13.2 Mb/s
Width : 1 800 pixels
Height : 1 080 pixels
Display aspect ratio : 5:3
Frame rate mode : Constant
Frame rate : 23.976 (24000/1001) FPS
Color space : YUV
Chroma subsampling : 4:2:0
Bit depth : 8 bits
Scan type : Progressive
Bits/(Pixel*Frame) : 0.284
Stream size : 7.67 GiB (76%)
Title : Robin Hood 1973
Writing library : core 133 r2334 a3ac64b
Encoding settings : cabac=1 / ref=4 / deblock=1:-1:-1 / analyse=0x3:0x113 / me=umh / subme=10 / psy=1 / psy_rd=1.20:0.00 / mixed_ref=1 / me_range=54 / chroma_me=1 / trellis=2 / 8x8dct=1 / cqm=0 / deadzone=21,11 / fast_pskip=0 / chroma_qp_offset=-1 / threads=6 / lookahead_threads=1 / sliced_threads=0 / nr=0 / decimate=1 / interlaced=0 / bluray_compat=0 / constrained_intra=0 / bframes=7 / b_pyramid=2 / b_adapt=2 / b_bias=0 / direct=3 / weightb=1 / open_gop=0 / weightp=2 / keyint=240 / keyint_min=23 / scenecut=40 / intra_refresh=0 / rc_lookahead=60 / rc=crf / mbtree=1 / crf=17.7 / qcomp=0.70 / qpmin=0 / qpmax=61 / qpstep=4 / vbv_maxrate=38000 / vbv_bufsize=30000 / crf_max=0.0 / nal_hrd=none / ip_ratio=1.20 / aq=1:0.70
Language : English
Default : Yes
Forced : No

Audio #1
ID : 2
Format : AC-3
Format/Info : Audio Coding 3
Commercial name : Dolby Digital
Codec ID : A_AC3
Duration : 1 h 23 min
Bit rate mode : Constant
Bit rate : 192 kb/s
Channel(s) : 2 channels
Channel layout : L R
Sampling rate : 48.0 kHz
Frame rate : 31.250 FPS (1536 SPF)
Bit depth : 16 bits
Compression mode : Lossy
Stream size : 114 MiB (1%)
Title : DUB 2.0ch
Language : Ukrainian
Service kind : Complete Main
Default : Yes
Forced : Yes

Audio #2
ID : 3
Format : XLL
Format/Info : Digital Theater Systems
Commercial name : -HD Master Audio
Codec ID : A_DTS
Duration : 1 h 23 min
Bit rate mode : Variable
Bit rate : 3 938 kb/s
Channel(s) : 6 channels
Channel layout : C L R Ls Rs LFE
Sampling rate : 48.0 kHz
Frame rate : 93.750 FPS (512 SPF)
Bit depth : 24 bits
Compression mode : Lossless
Stream size : 2.28 GiB (23%)
Language : English
Default : No
Forced : No

Text #1
ID : 4
Format : PGS
Muxing mode : zlib
Codec ID : S_HDMV/PGS
Codec ID/Info : Picture based subtitle format used on BDs/HD-DVDs
Duration : 1 h 22 min
Bit rate : 38.9 kb/s
Count of elements : 2234
Stream size : 22.9 MiB (0%)
Language : English
Default : No
Forced : No

Text #2
ID : 5
Format : VobSub
Muxing mode : zlib
Codec ID : S_VOBSUB
Codec ID/Info : Picture based subtitle format used on DVDs
Duration : 1 h 22 min
Bit rate : 9 914 b/s
Count of elements : 1117
Stream size : 5.84 MiB (0%)
Language : English
Default : No
Forced : No

Text #3
ID : 6
Format : PGS
Muxing mode : zlib
Codec ID : S_HDMV/PGS
Codec ID/Info : Picture based subtitle format used on BDs/HD-DVDs
Duration : 1 h 22 min
Bit rate : 32.5 kb/s
Count of elements : 1954
Stream size : 19.1 MiB (0%)
Language : English
Default : No
Forced : No

Text #4
ID : 7
Format : VobSub
Muxing mode : zlib
Codec ID : S_VOBSUB
Codec ID/Info : Picture based subtitle format used on DVDs
Duration : 1 h 22 min
Bit rate : 8 217 b/s
Count of elements : 976
Stream size : 4.84 MiB (0%)
Language : English
Default : No
Forced : No

Menu
00:00:00.000 : en:00:00:00.000
00:03:31.962 : en:00:03:31.962
00:09:10.133 : en:00:09:10.133
00:15:09.617 : en:00:15:09.617
00:20:57.089 : en:00:20:57.089
00:27:01.537 : en:00:27:01.537
00:31:22.172 : en:00:31:22.172
00:37:40.049 : en:00:37:40.049
00:42:00.351 : en:00:42:00.351
00:48:57.643 : en:00:48:57.643
00:51:08.983 : en:00:51:08.983
00:55:10.432 : en:00:55:10.432
01:03:05.198 : en:01:03:05.198
01:05:22.001 : en:01:05:22.001
01:20:30.743 : en:01:20:30.743
Скріншоти:


Придбання, синхронізація: sergiyko


Срібний реліз (на рейтинг впливає 50% завантаженого)
 Трекер:    Зареєстрований   

Завантажити / скачати мультфільм українською



відео для новачків



 Зареєстрований:   2019-10-19 11:52
 Розмір:   10.08 GB 
 Оцінка мультфільму:   10/10 (Голосів: 6)
   
Інші релізи
   Робін Гуд / Robin Hood (1973) 1080p H.265 3xUkr/Eng | Sub Ukr/Eng -Star-Lord-  9 / 0   4.85 GB   2020-03-04 09:27 
   Робін Гуд / Robin Hood (1973) AVC sergiyko.5  12 / 0   1.48 GB   2019-10-19 11:45 
   Робін Гуд / Robin Hood (1973) 720p Ukr/Eng | Sub Eng sergiyko.5  4 / 0   5 GB   2019-10-18 20:40 
   Робін Гуд / Robin Hood (1973) 720p Ukr/Eng | sub Eng радик  6 / 0   4.11 GB   2018-05-16 14:27 
bot 
робот


З нами з: 30.09.07
Востаннє: 26.05.05
Повідомлень: 27351

2019-10-18 17:54  
Тему перенесено з Мультфільми в HD до форуму Анонси релізів


sergiyko.5

dimon-2018 
VIP


З нами з: 06.05.18
Востаннє: 08.03.21
Повідомлень: 580

2019-10-18 18:09  
sergiyko.5
Буде дубляж?

leicheman 
Відео Гуртом - фільмокрай
Відео Гуртом - фільмокрай


З нами з: 03.07.14
Востаннє: 08.03.21
Повідомлень: 5957

2019-10-18 18:46  
sergiyko.5 написано:


igor911 написано:
Оскільки у 2013 році цей мульт вийшов на блуреї (40th Anniversary Edition), то прочитавши відгуки щодо порівняння HDTV та блурея, зауважу - на HDTV картинка краща, блурей отримано апскейлом з гіршою чіткістю, ніж в HDTV.

dimon-2018 
VIP


З нами з: 06.05.18
Востаннє: 08.03.21
Повідомлень: 580

2019-10-19 08:22  
sergiyko.5
український постер

bot 
робот


З нами з: 30.09.07
Востаннє: 26.05.05
Повідомлень: 27351

2019-10-19 11:52  
Тему перенесено з Анонси релізів до форуму Мультфільми в HD


sergiyko.5

Ваш часовий пояс: GMT + 2 Години

Нова тема   Відповісти