Братик ведмедик 2 / Brother Bear 2 (2006) Remux 1080p Ukr/Eng | Sub Eng

Нові коментарі

Нова тема   Відповісти
Автор Повідомлення
Anonymous 







2019-10-17 22:29  
Братик ведмедик 2 / Brother Bear 2 (2006) Remux 1080p Ukr/Eng | Sub Eng

Братик ведмедик 2 / Brother Bear 2 (2006) Remux 1080p Ukr/Eng | Sub Eng


Жанр: анімація, пригодницький, комедія, сімейний
Країна: США
Кінокомпанія: Disneytoon Studios, Walt Disney Pictures
Режисер: Бен Глюк
Актори: Рік Мораніс, Дейв Томас, Джеремі Суарес, Патрік Демпсі, Майкл Кларк Дункан , Менді Мур, Кетрін О'Хара, Ванда Сайкс , Андреа Мартін, Джим Каммінгс, Венді Мелік

Сюжет:
Найближча подруга Кєная в минулому потребує його допомоги, коли минуло так багато часу. Щоб їй допомогти Кєнаї зі своїм братиком (ведмежам на ім'я Кода) вирушають у захопливу, а часом і небезпечну пригоду

Тривалість: 01:13:15
Якість: Remux

Відео:
кодек:
розмір кадру: 1920 x 1080
бітрейт: 27 890 кб/с

Аудіо # 1:
мова: українська
переклад: багатоголосий закадровий
кодек: 2.0
бітрейт: 1510 кб/с

Аудіо # 2:
мова: англійська
переклад: оригінал
кодек: -HD MA 5.1
бітрейт: 4667 кб/с

Субтитри # 1-2: (Full, SDH)
мова: англійська
тип: програмні (м'які)
формат: *.srt


Info
Код:
General
Unique ID                                : 135051193653245929623520993579272898972 (0x6599E9EE060D880E3B45C7F6C2CE099C)
Complete name                            : Brother Bear 2 (2006) Remux 1080p [UKR_ENG] [Hurtom].
Format                                   :
Format version                           : Version 4
File size                                : 17.4 GiB
Duration                                 : 1 h 13 min
Overall bit rate mode                    : Variable
Overall bit rate                         : 34.0 Mb/s
Movie name                               : Братик ведмедик 2 / Brother Bear 2 (2006)
Encoded date                             : UTC 2019-10-20 21:15:25
Writing application                      : v20.0.0 ('I Am The Sun') 64-bit
Writing library                          : libebml v1.3.5 + v1.4.8
Cover                                    : Yes
Attachments                              : Cover.jpg

Video
ID                                       : 1
Format                                   : AVC
Format/Info                              : Advanced Video Codec
Format profile                           : [email protected]
Format settings                          : CABAC / 4 Ref Frames
Format settings, CABAC                   : Yes
Format settings, Reference frames        : 4 frames
Codec ID                                 : V_MPEG4/ISO/AVC
Duration                                 : 1 h 13 min
Bit rate mode                            : Variable
Bit rate                                 : 27.9 Mb/s
Maximum bit rate                         : 28.9 Mb/s
Width                                    : 1 920 pixels
Height                                   : 1 080 pixels
Display aspect ratio                     : 16:9
Frame rate mode                          : Constant
Frame rate                               : 23.976 (24000/1001) FPS
Color space                              : YUV
Chroma subsampling                       : 4:2:0
Bit depth                                : 8 bits
Scan type                                : Progressive
Bits/(Pixel*Frame)                       : 0.561
Stream size                              : 14.3 GiB (82%)
Title                                    : Братик ведмедик 2 / Brother Bear 2 (2006)
Default                                  : Yes
Forced                                   : No

Audio #1
ID                                       : 2
Format                                   :
Format/Info                              : Digital Theater Systems
Codec ID                                 : A_DTS
Duration                                 : 1 h 13 min
Bit rate mode                            : Constant
Bit rate                                 : 1 509 kb/s
Channel(s)                               : 2 channels
Channel layout                           : L R
Sampling rate                            : 48.0 kHz
Frame rate                               : 93.750 FPS (512 SPF)
Bit depth                                : 16 bits
Compression mode                         : Lossy
Stream size                              : 793 MiB (4%)
Title                                    : / 2.0 Ch / 1509 kbps / БЗ / Студія Дві Сімки
Language                                 : Ukrainian
Default                                  : Yes
Forced                                   : Yes

Audio #2
ID                                       : 3
Format                                   : XLL
Format/Info                              : Digital Theater Systems
Commercial name                          : -HD Master Audio
Codec ID                                 : A_DTS
Duration                                 : 1 h 13 min
Bit rate mode                            : Variable
Bit rate                                 : 4 663 kb/s
Channel(s)                               : 6 channels
Channel layout                           : C L R Ls Rs LFE
Sampling rate                            : 48.0 kHz
Frame rate                               : 93.750 FPS (512 SPF)
Bit depth                                : 24 bits
Compression mode                         : Lossless
Stream size                              : 2.39 GiB (14%)
Title                                    : -HD MA / 5.1 Ch / 4674 kbps / Original
Language                                 : English
Default                                  : No
Forced                                   : No

Text #1
ID                                       : 4
Format                                   : UTF-8
Codec ID                                 : S_TEXT/UTF8
Codec ID/Info                            : UTF-8 Plain Text
Duration                                 : 1 h 4 min
Bit rate                                 : 60 b/s
Count of elements                        : 905
Stream size                              : 28.8 KiB (0%)
Title                                    : Full
Language                                 : English
Default                                  : No
Forced                                   : No

Text #2
ID                                       : 5
Format                                   : UTF-8
Codec ID                                 : S_TEXT/UTF8
Codec ID/Info                            : UTF-8 Plain Text
Duration                                 : 1 h 11 min
Bit rate                                 : 66 b/s
Count of elements                        : 1164
Stream size                              : 34.9 KiB (0%)
Title                                    : SDH
Language                                 : English
Default                                  : No
Forced                                   : No

Menu
00:00:00.000                             : en:Opening Title
00:04:05.870                             : en:Remembering Nita
00:06:47.907                             : en:Great Spirits Intervene
00:10:46.312                             : en:Consulting the Sha-Woman
00:13:53.624                             : en:Kenai and Nita Reunited
00:23:25.112                             : en:Losing the Amulet
00:27:31.983                             : en:A Trade!
00:32:45.129                             : en:Matchmaker
00:43:51.670                             : en:Avalanche
00:48:40.834                             : en:The Equinox
00:57:11.302                             : en:Bears in the Village
01:01:27.517                             : en:Nita's Decision
Світлини




Джерело: &
Особиста оцінка: 10 - без зайвих вагань рекомендую всім!


Золотий реліз (завантажене не впливає на рейтинг)
 Трекер:    Зареєстрований   

Завантажити / скачати мультфільм українською



відео для новачків



 Зареєстрований:   2019-10-23 19:50
 Розмір:   17.44 GB 
 Оцінка мультфільму:   9.8/10 (Голосів: 5)
   
Інші релізи
"Дві Сімки" 
Новенький


З нами з: 15.06.17
Востаннє: 13.10.20
Повідомлень: 16

2019-10-20 10:35  
Круто! Дякую))). Але треба було наиписати в приват, я б надав Вам Чистовий файл україномовної доріжки для уникнення втрати якості в наслідок перезаливання доріжки у відеоредакторі((
"Дві Сімки" 
Новенький


З нами з: 15.06.17
Востаннє: 13.10.20
Повідомлень: 16

2019-10-20 20:37  
ПОСИЛАННЯ НА УКРАЇНСЬКОМОВНУ ДОРІЖКУ: https://dropmefiles.com/vbuY1
Anonymous 







2019-10-23 19:51  
Додано якіснішу укр. доріжку.
missU 
Новенький


З нами з: 22.11.11
Востаннє: 01.12.20
Повідомлень: 9

2020-08-31 15:14  
на роздачу плз
Ваш часовий пояс: GMT + 2 Години

Нова тема   Відповісти