Братик ведмедик / Brother Bear (2003) Remux 1080p Ukr/Eng | Sub Eng

Нові коментарі

Нова тема   Відповісти
Останній раз роздавалося striptiz (2020-02-27)
Автор Повідомлення
Anonymous 







2019-10-17 22:21  
Братик ведмедик / Brother Bear (2003) Remux 1080p Ukr/Eng | Sub Eng

Братик ведмедик / Brother Bear (2003) Remux 1080p Ukr/Eng | Sub Eng


Жанр: анімація, фентезі, пригодницький, сімейний
Країна: США
Кінокомпанія: Walt Disney Feature Animation, Walt Disney Pictures
Режисер: Аарон Блейз / Aaron Blaise, Роберт Вокер / Robert Walker
Ролі озвучують: Хоакін Фенікс / Joaquin Phoenix, Джеремі Суарез / Jeremy Suarez, Джейсон Райзе / Jason Raize, Рік Мораніс / Rick Moranis, Дейв Томас / Dave Thomas, Д.Б. Свіні / D.B. Sweeney, Джоан Копленд / Joan Copeland, Майкл Кларк Данкан / Michael Clarke Duncan, Гарольд Ґульд / Harold Gould, Пол Крісті / Paul Christie

Сюжет:
Давним-давно, коли по Землі ходили мамонти, а вічна крига сягала південних морів, жив мисливець Кенаї. Він був хоробрий і спритний, але якось прогнівав Великих Духів, убивши ведмедицю – священну тварину, чий тотем носив на шиї. Тоді духи пращурів, щоб покарати Кенаї, перетворили його на ведмедя. Тепер він не може розмовляти людською мовою, на нього полює його рідний брат, а ще до нього прибилося пустотливе ведмежа Кода, яке не хоче давати героєві спокою.
Але духи недарма звели Кенаї з Кодою – коли мисливець побачить у ньому рідну душу, він зможе знову стати людиною...

Тривалість: 01:25:04
Якість: Remux

Відео:
кодек:
розмір кадру: 1920 x 1080
бітрейт: 27 682 кб/с

Аудіо # 1:
мова: українська
переклад: професійний дубльований | Невафільм Україна
кодек: AC-3 2.0
бітрейт: 192 кб/с

Аудіо # 2:
мова: англійська
переклад: оригінал
кодек: -HD MA 5.1
бітрейт: 4987 кб/с

Аудіо # 3:
мова: англійська
переклад: оригінал / Rutt and Tuke's Commentary
кодек: 2.0
бітрейт: 122 кб/с

Субтитри # 1-3: (Full, SDH, Commentary)
мова: англійська
тип: програмні (м'які)
формат: *.srt


Info
Код:
General
Unique ID                                : 226993482448341811738198458413343475987 (0xAAC55AC0B20C50E738BD28B4E62E8913)
Complete name                            : Brother Bear (2003) Remux 1080p [UKR_ENG] [Hurtom].
Format                                   :
Format version                           : Version 4
File size                                : 19.6 GiB
Duration                                 : 1 h 25 min
Overall bit rate mode                    : Variable
Overall bit rate                         : 33.0 Mb/s
Movie name                               : Братик ведмедик / Brother Bear (2003)
Encoded date                             : UTC 2019-10-16 19:49:38
Writing application                      : v20.0.0 ('I Am The Sun') 64-bit
Writing library                          : libebml v1.3.5 + v1.4.8
Cover                                    : Yes
Attachments                              : Cover.jpg

Video
ID                                       : 1
Format                                   : AVC
Format/Info                              : Advanced Video Codec
Format profile                           : [email protected]
Format settings                          : CABAC / 4 Ref Frames
Format settings, CABAC                   : Yes
Format settings, Reference frames        : 4 frames
Codec ID                                 : V_MPEG4/ISO/AVC
Duration                                 : 1 h 25 min
Bit rate mode                            : Variable
Bit rate                                 : 27.7 Mb/s
Maximum bit rate                         : 28.9 Mb/s
Width                                    : 1 920 pixels
Height                                   : 1 080 pixels
Display aspect ratio                     : 16:9
Frame rate mode                          : Constant
Frame rate                               : 23.976 (24000/1001) FPS
Color space                              : YUV
Chroma subsampling                       : 4:2:0
Bit depth                                : 8 bits
Scan type                                : Progressive
Bits/(Pixel*Frame)                       : 0.557
Stream size                              : 16.4 GiB (84%)
Title                                    : Братик ведмедик / Brother Bear (2003)
Default                                  : Yes
Forced                                   : No

Audio #1
ID                                       : 2
Format                                   : AC-3
Format/Info                              : Audio Coding 3
Commercial name                          : Dolby Digital
Codec ID                                 : A_AC3
Duration                                 : 1 h 25 min
Bit rate mode                            : Constant
Bit rate                                 : 192 kb/s
Channel(s)                               : 2 channels
Channel layout                           : L R
Sampling rate                            : 48.0 kHz
Frame rate                               : 31.250 FPS (1536 SPF)
Bit depth                                : 16 bits
Compression mode                         : Lossy
Stream size                              : 117 MiB (1%)
Title                                    : / 2.0 Ch / 192 kbps / ПД / Nevafilm Ukraine
Language                                 : Ukrainian
Service kind                             : Complete Main
Default                                  : Yes
Forced                                   : Yes

Audio #2
ID                                       : 3
Format                                   : XLL
Format/Info                              : Digital Theater Systems
Commercial name                          : -HD Master Audio
Codec ID                                 : A_DTS
Duration                                 : 1 h 25 min
Bit rate mode                            : Variable
Bit rate                                 : 4 982 kb/s
Channel(s)                               : 6 channels
Channel layout                           : C L R Ls Rs LFE
Sampling rate                            : 48.0 kHz
Frame rate                               : 93.750 FPS (512 SPF)
Bit depth                                : 24 bits
Compression mode                         : Lossless
Stream size                              : 2.96 GiB (15%)
Title                                    : -HD MA / 5.1 Ch / 4986 kbps / Original
Language                                 : English
Default                                  : No
Forced                                   : No

Audio #3
ID                                       : 4
Format                                   : LC
Format/Info                              : Advanced Audio Codec Low Complexity
Codec ID                                 : A_AAC-2
Duration                                 : 1 h 25 min
Bit rate                                 : 123 kb/s
Channel(s)                               : 2 channels
Channel layout                           : L R
Sampling rate                            : 48.0 kHz
Frame rate                               : 46.875 FPS (1024 SPF)
Compression mode                         : Lossy
Delay relative to video                  : 9 ms
Stream size                              : 74.7 MiB (0%)
Title                                    : / 2.0 Ch / 124 kbps / Original / Rutt and Tuke's Commentary
Language                                 : English
Default                                  : No
Forced                                   : No

Text #1
ID                                       : 5
Format                                   : UTF-8
Codec ID                                 : S_TEXT/UTF8
Codec ID/Info                            : UTF-8 Plain Text
Duration                                 : 1 h 24 min
Bit rate                                 : 51 b/s
Count of elements                        : 879
Stream size                              : 31.7 KiB (0%)
Title                                    : Full
Language                                 : English
Default                                  : No
Forced                                   : No

Text #2
ID                                       : 6
Format                                   : UTF-8
Codec ID                                 : S_TEXT/UTF8
Codec ID/Info                            : UTF-8 Plain Text
Duration                                 : 1 h 24 min
Bit rate                                 : 57 b/s
Count of elements                        : 1041
Stream size                              : 35.5 KiB (0%)
Title                                    : SDH
Language                                 : English
Default                                  : No
Forced                                   : No

Text #3
ID                                       : 7
Format                                   : UTF-8
Codec ID                                 : S_TEXT/UTF8
Codec ID/Info                            : UTF-8 Plain Text
Duration                                 : 1 h 24 min
Bit rate                                 : 160 b/s
Count of elements                        : 1978
Stream size                              : 99.6 KiB (0%)
Title                                    : Commentary
Language                                 : English
Default                                  : No
Forced                                   : No

Menu
00:00:00.000                             : en:Prologue: Denahi Remembers
00:02:01.287                             : en:"Great Spirits"
00:07:03.464                             : en:Kenai's Ceremony
00:11:24.100                             : en:Glacier Fight
00:14:33.205                             : en:Goodbye Sitka
00:15:21.253                             : en:Argument
00:20:10.083                             : en:"Transformation"
00:24:34.473                             : en:Bear's Eye View
00:27:06.708                             : en:Rutt & Tuke
00:29:45.617                             : en:Meet Koda
00:33:01.187                             : en:Ice Cave
00:36:18.926                             : en:Denahi Finds The Ice Cave
00:38:26.053                             : en:"On My Way"
00:42:22.581                             : en:Nightmare On The Mammoths
00:44:18.030                             : en:I Spy
00:47:10.369                             : en:Abandoned Village
00:48:59.519                             : en:Butting Heads
00:50:16.054                             : en:Valley Of Fire
00:54:21.132                             : en:Arrival At The Run
00:56:46.778                             : en:"Welcome" (aka Fishing Song)
01:00:11.316                             : en:Bear Party
01:04:58.895                             : en:No Way Out / Kenai's Confession
01:08:28.854                             : en:Denahi Sees A Sign
01:09:14.817                             : en:Moose's Advice
01:11:20.109                             : en:Mountain Top Fight
01:16:55.986                             : en:Epilogue: "Great Spirits Reprise"
01:18:01.468                             : en:Vignettes / End Credits
01:19:29.139                             : en:"Through My Eyes"
Світлини




Джерело: &
Особиста оцінка: 10 - без зайвих вагань рекомендую всім!


Золотий реліз (завантажене не впливає на рейтинг)
 Трекер:    Зареєстрований   

Завантажити / скачати мультфільм українською



відео для новачків



 Зареєстрований:   2019-10-17 22:21
 Розмір:   19.6 GB 
 Оцінка мультфільму:   -/10 (Голосів: 0)
   
Інші релізи
Ваш часовий пояс: GMT + 2 Години

Нова тема   Відповісти