Історія іграшок 4 / Toy Story 4 (2019) UHD Remux 4K 2160p HDR H.265 Ukr/Eng | Sub Eng

Нові коментарі

Нова тема   Відповісти
Автор Повідомлення
Anonymous 







2019-10-17 21:05  
Історія іграшок 4 / Toy Story 4 (2019) UHD Remux 4K 2160p HDR H.265 Ukr/Eng | Sub Eng

Альтернативні постери







Жанр: анімація, сімейний, пригодницький, комедія, фентезі
Країна: США





Кінокомпанія: Walt Disney Pictures, Pixar Animation Studios
Режисер: Джош Кулі / Josh Cooley
Ролі озвучують: Том Генкс, Тім Аллен, Енні Поттс, Тоні Хейл, Кіген-Майкл Кі, Мадлен МакГроу, Крістіна Хендрікс, Джордан Піл, Кіану Рівз, Еллі Матсумура

Сюжет:
Найвідоміші аніматори світу, оскароносні Disney/Pixar запрошують на зустріч з улюбленими героями! З переїздом у новий дім життя ковбоя Вуді і космічного рейнджера Базза перевертається з ніг на голову. Залишивши турботи, герої змушені об'єднатися, щоб вирушити у захопливу і небезпечну мандрівку, рівної якій ще не було у світі Іграшок!
Офіційні українські тизер та трейлер:

тизер:


трейлер:

Рейтинг MPAA: G - немає вікових обмежень
Вікова категорія: 6+
Тривалість: 01:40:03
Якість: UHD Remux 4K 2160p
Відео:
кодек: H.265 (HEVC)
розмір кадру: 3840x2160
бітрейт: 38.4 Мб/с
бітова глибина: 10 біт
кольоровий простір: BT.2020 (HDR)

Аудіо # 1:
мова: українська
переклад: професійний дубльований | студія LeDoyen
кодек: 5.1
бітрейт: 640 кб/с

Аудіо # 2:
мова: українська
переклад: професійний дубльований | студія LeDoyen
кодек: 5.1
бітрейт: 1536 кб/с

Аудіо # 3:
мова: українська
переклад: професійний дубльований | студія LeDoyen
кодек: -HD MA 5.1
бітрейт: 3594 кб/с

Аудіо # 4:
мова: англійська
переклад: оригінал
кодек: 5.1
бітрейт: 640 кб/с

Аудіо # 5:
мова: англійська
переклад: оригінал
кодек: TrueHD + Atmos 7.1
бітрейт: 6192 кб/с

Субтитри: (Full, SDH)
мова: англійська
тип: програмні (м'які)
формат: *.srt

Збережено оригінальні розділи, як на Blu-ray.
Info
Код:
General
Complete name                            : Toy Story 4 (2019) UHD Remux 4K 2160p HDR H.265 (HEVC) [UKR_ENG] [ViDeO_Hurtom].
Format                                   :
Format version                           : Version 4
File size                                : 35.7 GiB
Duration                                 : 1 h 40 min
Overall bit rate mode                    : Variable
Overall bit rate                         : 51.0 Mb/s
Encoded date                             : UTC 2019-10-17 16:59:30
Writing application                      : v30.1.0 ('Forever And More') 64-bit
Writing library                          : libebml v1.3.6 + v1.4.9
Cover                                    : Yes
Attachments                              : cover.jpg

Video
ID                                       : 1
Format                                   : HEVC
Format/Info                              : High Efficiency Video Coding
Commercial name                          : HDR10
Format profile                           : Main [email protected]@High
Codec ID                                 : V_MPEGH/ISO/HEVC
Duration                                 : 1 h 40 min
Bit rate                                 : 38.4 Mb/s
Width                                    : 3 840 pixels
Height                                   : 2 160 pixels
Display aspect ratio                     : 16:9
Frame rate mode                          : Constant
Frame rate                               : 23.976 (24000/1001) FPS
Color space                              : YUV
Chroma subsampling                       : 4:2:0 (Type 2)
Bit depth                                : 10 bits
Bits/(Pixel*Frame)                       : 0.193
Stream size                              : 26.8 GiB (75%)
Writing library                          : ATEME Titan File 3.9.0 (4.9.0.0)
Language                                 : English
Default                                  : Yes
Forced                                   : No
Color range                              : Limited
Color primaries                          : BT.2020
Transfer characteristics                 : PQ
Matrix coefficients                      : BT.2020 non-constant
Mastering display color primaries        : Display P3
Mastering display luminance              : min: 0.0000 cd/m2, max: 1000 cd/m2

Audio #1
ID                                       : 2
Format                                   : AC-3
Format/Info                              : Audio Coding 3
Commercial name                          : Dolby Digital
Codec ID                                 : A_AC3
Duration                                 : 1 h 40 min
Bit rate mode                            : Constant
Bit rate                                 : 640 kb/s
Channel(s)                               : 6 channels
Channel layout                           : L R C LFE Ls Rs
Sampling rate                            : 48.0 kHz
Frame rate                               : 31.250 FPS (1536 SPF)
Bit depth                                : 16 bits
Compression mode                         : Lossy
Stream size                              : 458 MiB (1%)
Title                                    : , 6 ch, 640 Кбт/с
Language                                 : Ukrainian
Service kind                             : Complete Main
Default                                  : No
Forced                                   : No

Audio #2
ID                                       : 3
Format                                   :
Format/Info                              : Digital Theater Systems
Codec ID                                 : A_DTS
Duration                                 : 1 h 40 min
Bit rate mode                            : Constant
Bit rate                                 : 1 509 kb/s
Channel(s)                               : 6 channels
Channel layout                           : C L R Ls Rs LFE
Sampling rate                            : 48.0 kHz
Frame rate                               : 93.750 FPS (512 SPF)
Bit depth                                : 24 bits
Compression mode                         : Lossy
Stream size                              : 1.05 GiB (3%)
Title                                    : , 6 ch, 1536 Кбт/с
Language                                 : Ukrainian
Default                                  : No
Forced                                   : No

Audio #3
ID                                       : 4
Format                                   : XLL
Format/Info                              : Digital Theater Systems
Commercial name                          : -HD Master Audio
Codec ID                                 : A_DTS
Duration                                 : 1 h 40 min
Bit rate mode                            : Variable
Bit rate                                 : 3 594 kb/s
Channel(s)                               : 6 channels
Channel layout                           : C L R Ls Rs LFE
Sampling rate                            : 48.0 kHz
Frame rate                               : 93.750 FPS (512 SPF)
Bit depth                                : 24 bits
Compression mode                         : Lossless
Stream size                              : 2.51 GiB (7%)
Title                                    : -HD MA, 8 ch, 3594 Кбт/с
Language                                 : Ukrainian
Default                                  : Yes
Forced                                   : No

Audio #4
ID                                       : 5
Format                                   : AC-3
Format/Info                              : Audio Coding 3
Commercial name                          : Dolby Digital
Codec ID                                 : A_AC3
Duration                                 : 1 h 40 min
Bit rate mode                            : Constant
Bit rate                                 : 640 kb/s
Channel(s)                               : 6 channels
Channel layout                           : L R C LFE Ls Rs
Sampling rate                            : 48.0 kHz
Frame rate                               : 31.250 FPS (1536 SPF)
Bit depth                                : 16 bits
Compression mode                         : Lossy
Stream size                              : 458 MiB (1%)
Title                                    : , 6 ch, 640 Кбт/с
Language                                 : English
Service kind                             : Complete Main
Default                                  : No
Forced                                   : No

Audio #5
ID                                       : 6
Format                                   : MLP FBA 16-ch
Format/Info                              : Meridian Lossless Packing FBA with 16-channel presentation
Commercial name                          : Dolby TrueHD with Dolby Atmos
Codec ID                                 : A_TRUEHD
Duration                                 : 1 h 40 min
Bit rate mode                            : Variable
Bit rate                                 : 6 192 kb/s
Maximum bit rate                         : 8 532 kb/s
Channel(s)                               : 8 channels
Channel layout                           : L R C LFE Ls Rs Lb Rb
Sampling rate                            : 48.0 kHz
Frame rate                               : 1 200.000 FPS (40 SPF)
Compression mode                         : Lossless
Stream size                              : 4.33 GiB (12%)
Title                                    : TrueHD, 8 ch, 6192 Кбт/с
Language                                 : English
Default                                  : No
Forced                                   : No
Number of dynamic objects                : 13
Bed channel count                        : 1 channel
Bed channel configuration                : LFE

Text #1
ID                                       : 7
Format                                   : UTF-8
Codec ID                                 : S_TEXT/UTF8
Codec ID/Info                            : UTF-8 Plain Text
Duration                                 : 1 h 39 min
Bit rate                                 : 65 b/s
Count of elements                        : 1806
Stream size                              : 47.2 KiB (0%)
Title                                    : Full
Language                                 : English
Default                                  : No
Forced                                   : No

Text #2
ID                                       : 8
Format                                   : UTF-8
Codec ID                                 : S_TEXT/UTF8
Codec ID/Info                            : UTF-8 Plain Text
Duration                                 : 1 h 39 min
Bit rate                                 : 121 b/s
Count of elements                        : 2039
Stream size                              : 88.7 KiB (0%)
Title                                    : SDH
Language                                 : English
Default                                  : Yes
Forced                                   : No

Menu
00:00:00.000                             : :Chapter 01
00:05:39.798                             : :Chapter 02
00:11:21.097                             : :Chapter 03
00:15:06.239                             : :Chapter 04
00:19:01.140                             : :Chapter 05
00:20:52.042                             : :Chapter 06
00:22:43.821                             : :Chapter 07
00:26:11.111                             : :Chapter 08
00:27:47.082                             : :Chapter 09
00:32:11.846                             : :Chapter 10
00:36:17.425                             : :Chapter 11
00:40:34.640                             : :Chapter 12
00:42:56.699                             : :Chapter 13
00:44:26.872                             : :Chapter 14
00:46:39.380                             : :Chapter 15
00:48:06.175                             : :Chapter 16
00:49:18.664                             : :Chapter 17
00:52:25.809                             : :Chapter 18
00:53:58.568                             : :Chapter 19
00:54:34.479                             : :Chapter 20
00:59:06.960                             : :Chapter 21
01:01:30.645                             : :Chapter 22
01:04:40.752                             : :Chapter 23
01:07:25.249                             : :Chapter 24
01:09:31.042                             : :Chapter 25
01:10:54.834                             : :Chapter 26
01:12:05.154                             : :Chapter 27
01:15:03.040                             : :Chapter 28
01:17:29.770                             : :Chapter 29
01:18:04.846                             : :Chapter 30
01:19:21.840                             : :Chapter 31
01:19:48.116                             : :Chapter 32
01:22:24.940                             : :Chapter 33
01:29:00.293                             : :Chapter 34
Скріншоти



Джерело: &
Подяка пану Hanway за синхронізацію звуку.
Особиста оцінка: 0 - не дивився
Увага! Перед завантаженням переконайтесь, що ваш пристрій відтворення (та/або ПЗ) підтримує H.265 (HEVC)



Золотий реліз (завантажене не впливає на рейтинг)
 Трекер:    Зареєстрований   

Завантажити / скачати мультфільм українською



відео для новачків



 Зареєстрований:   2019-10-17 21:05
 Розмір:   35.68 GB 
 Оцінка мультфільму:   9/10 (Голосів: 10)
   
Інші релізи
Ваш часовий пояс: GMT + 2 Години

Нова тема   Відповісти