Вчора / Yesterday (2019) Remux 1080p Ukr/Eng | Sub Eng/Fre/Spa

Нові коментарі

Нова тема   Відповісти
Автор Повідомлення
Anonymous 







2019-10-17 19:18  
Вчора / Yesterday (2019) Remux 1080p Ukr/Eng | Sub Eng/Fre/Spa

Вчора / Yesterday (2019) Remux 1080p Ukr/Eng | Sub Eng/Fre/Spa


Альтернативні постери





«Світ забув про The Beatles. Але тільки не Джек...»



Жанр: комедія, мелодрама, музика, мюзикл, фентезі
Країна: Велика Британія, Росія, Китай





Кінокомпанія: Decibel Films, Etalon Film, Perfect World Pictures
Режисер: Денні Бойл
Актори: Гімеш Патель, Лілі Джеймс, Софі Ді Мартіно, Елліз Шаппелль, Міра Сайал, Гаррі Мішель, Вінсент Франклін, Джоель Фрай, Майкл Ківанука

Сюжет:
Уявіть собі світ, де всі забули про «The Beatles»… Молодий талановитий музикант розуміє – не можна втрачати такий шанс і видає хіти легендарного гурту за свої власні. Концерти, шоу, записи, слава і визнання! І це не сон, а нова комедія від оскароносного режисера Денні Бойла.


Тривалість: 01:56:14
Якість: Remux 1080p

Відео:
кодек:
розмір кадру: 1920x1080
бітрейт: 30.1 Мб/с

Аудіо # 1:
мова: українська
переклад: професійний дубльований
кодек: 2.0
бітрейт: 192 кб/с

Аудіо # 2:
мова: англійська
переклад: оригінал
кодек: 5.1
бітрейт: 448 кб/с

Аудіо # 2:
мова: англійська
переклад: оригінал
кодек: DTS_HD MA 7.1
бітрейт: 4024 кб/с

Аудіо # 4:
мова: англійська
переклад: оригінал
кодек: 2.0 |Commentary|
бітрейт: 192 кб/с

Субтитри: (Forced, Full)
мова: іспанська
тип: програмні (м'які)
формат: *.pgs

Субтитри: (SDH)
мова: англійська
тип: програмні (м'які)
формат: *.pgs

Субтитри: (Forced, Full)
мова: французька
тип: програмні (м'які)
формат: *.pgs
Info
Код:
General
Complete name                            : Yesterday (2019) Remux 1080p [UKR_ENG] [ViDeO_Hurtom].
Format                                   :
Format version                           : Version 4
File size                                : 28.4 GiB
Duration                                 : 1 h 56 min
Overall bit rate mode                    : Variable
Overall bit rate                         : 35.0 Mb/s
Movie name                               : Yesterday (2019) Remux 1080p [UKR_ENG] [ViDeO_Hurtom]
Encoded date                             : UTC 2019-10-20 19:04:52
Writing application                      : v30.1.0 ('Forever And More') 64-bit
Writing library                          : libebml v1.3.6 + v1.4.9
Cover                                    : Yes
Attachments                              : cover.jpg

Video
ID                                       : 1
Format                                   : AVC
Format/Info                              : Advanced Video Codec
Format profile                           : [email protected]
Format settings                          : CABAC / 4 Ref Frames
Format settings, CABAC                   : Yes
Format settings, RefFrames               : 4 frames
Format settings, GOP                     : M=3, N=12
Codec ID                                 : V_MPEG4/ISO/AVC
Duration                                 : 1 h 56 min
Bit rate mode                            : Variable
Bit rate                                 : 30.1 Mb/s
Maximum bit rate                         : 33.0 Mb/s
Width                                    : 1 920 pixels
Height                                   : 1 080 pixels
Display aspect ratio                     : 16:9
Frame rate mode                          : Constant
Frame rate                               : 23.976 (24000/1001) FPS
Color space                              : YUV
Chroma subsampling                       : 4:2:0
Bit depth                                : 8 bits
Scan type                                : Progressive
Bits/(Pixel*Frame)                       : 0.605
Stream size                              : 24.4 GiB (86%)
Default                                  : Yes
Forced                                   : No

Audio #1
ID                                       : 2
Format                                   : AC-3
Format/Info                              : Audio Coding 3
Commercial name                          : Dolby Digital
Codec ID                                 : A_AC3
Duration                                 : 1 h 56 min
Bit rate mode                            : Constant
Bit rate                                 : 192 kb/s
Channel(s)                               : 2 channels
Channel layout                           : L R
Sampling rate                            : 48.0 kHz
Frame rate                               : 31.250 FPS (1536 SPF)
Bit depth                                : 16 bits
Compression mode                         : Lossy
Stream size                              : 160 MiB (1%)
Title                                    : 2.0 | 192 kb/s
Language                                 : Ukrainian
Service kind                             : Complete Main
Default                                  : Yes
Forced                                   : No

Audio #2
ID                                       : 3
Format                                   : AC-3
Format/Info                              : Audio Coding 3
Commercial name                          : Dolby Digital
Codec ID                                 : A_AC3
Duration                                 : 1 h 56 min
Bit rate mode                            : Constant
Bit rate                                 : 448 kb/s
Channel(s)                               : 6 channels
Channel layout                           : L R C LFE Ls Rs
Sampling rate                            : 48.0 kHz
Frame rate                               : 31.250 FPS (1536 SPF)
Bit depth                                : 16 bits
Compression mode                         : Lossy
Stream size                              : 372 MiB (1%)
Title                                    : 5.1 | 448 kb/s
Language                                 : English
Service kind                             : Complete Main
Default                                  : No
Forced                                   : No

Audio #3
ID                                       : 4
Format                                   : XLL
Format/Info                              : Digital Theater Systems
Commercial name                          : -HD Master Audio
Codec ID                                 : A_DTS
Duration                                 : 1 h 56 min
Bit rate mode                            : Variable
Bit rate                                 : 4 024 kb/s
Channel(s)                               : 8 channels
Channel layout                           : C L R LFE Lb Rb Lss Rss
Sampling rate                            : 48.0 kHz
Frame rate                               : 93.750 FPS (512 SPF)
Bit depth                                : 24 bits
Compression mode                         : Lossless
Stream size                              : 3.27 GiB (11%)
Title                                    : DTS_HD MA 7.1 | 4024 kb/s
Default                                  : No
Forced                                   : No

Audio #4
ID                                       : 5
Format                                   : AC-3
Format/Info                              : Audio Coding 3
Commercial name                          : Dolby Digital
Codec ID                                 : A_AC3
Duration                                 : 1 h 56 min
Bit rate mode                            : Constant
Bit rate                                 : 192 kb/s
Channel(s)                               : 2 channels
Channel layout                           : L R
Sampling rate                            : 48.0 kHz
Frame rate                               : 31.250 FPS (1536 SPF)
Bit depth                                : 16 bits
Compression mode                         : Lossy
Stream size                              : 160 MiB (1%)
Title                                    : 2.0 | 192 kb/s
Language                                 : English
Service kind                             : Complete Main
Default                                  : No
Forced                                   : No

Text #1
ID                                       : 6
Format                                   : PGS
Muxing mode                              : zlib
Codec ID                                 : S_HDMV/PGS
Codec ID/Info                            : Picture based subtitle format used on BDs/HD-DVDs
Duration                                 : 1 h 54 min
Bit rate                                 : 901 b/s
Count of elements                        : 70
Stream size                              : 756 KiB (0%)
Title                                    : Forced
Language                                 : French
Default                                  : Yes
Forced                                   : No

Text #2
ID                                       : 7
Format                                   : PGS
Muxing mode                              : zlib
Codec ID                                 : S_HDMV/PGS
Codec ID/Info                            : Picture based subtitle format used on BDs/HD-DVDs
Duration                                 : 1 h 44 min
Bit rate                                 : 179 b/s
Count of elements                        : 12
Stream size                              : 138 KiB (0%)
Title                                    : Forced
Language                                 : Spanish
Default                                  : No
Forced                                   : No

Text #3
ID                                       : 8
Format                                   : PGS
Muxing mode                              : zlib
Codec ID                                 : S_HDMV/PGS
Codec ID/Info                            : Picture based subtitle format used on BDs/HD-DVDs
Duration                                 : 1 h 54 min
Bit rate                                 : 59.0 kb/s
Count of elements                        : 4250
Stream size                              : 48.5 MiB (0%)
Title                                    : SDH
Language                                 : English
Default                                  : No
Forced                                   : No

Text #4
ID                                       : 9
Format                                   : PGS
Muxing mode                              : zlib
Codec ID                                 : S_HDMV/PGS
Codec ID/Info                            : Picture based subtitle format used on BDs/HD-DVDs
Duration                                 : 1 h 54 min
Bit rate                                 : 40.7 kb/s
Count of elements                        : 3065
Stream size                              : 33.4 MiB (0%)
Title                                    : Full
Language                                 : Spanish
Default                                  : No
Forced                                   : No

Text #5
ID                                       : 10
Format                                   : PGS
Muxing mode                              : zlib
Codec ID                                 : S_HDMV/PGS
Codec ID/Info                            : Picture based subtitle format used on BDs/HD-DVDs
Duration                                 : 1 h 54 min
Bit rate                                 : 43.8 kb/s
Count of elements                        : 3060
Stream size                              : 36.0 MiB (0%)
Title                                    : Full
Language                                 : French
Default                                  : No
Forced                                   : No
Скріншоти


Джерело:
Особиста оцінка: 8 - мені сподобалося


Золотий реліз (завантажене не впливає на рейтинг)
 Трекер:    Зареєстрований   

Завантажити / скачати фільм українською



відео для новачків



 Зареєстрований:   2019-11-16 13:42
 Розмір:   28.44 GB 
 Оцінка фільму:   9.8/10 (Голосів: 11)
   
Інші релізи
   Вчора / Yesterday (2019) UHD Remux 4K 2160p HDR H.265 Ukr/Eng | Sub Eng/Fre/Spa antik_2008  4 / 0   52.46 GB   2019-11-16 14:00 
   Вчора / Yesterday (2019) 1080p H.265 Ukr/Eng | Sub Eng -Star-Lord-  7 / 0   8.82 GB   2019-11-16 13:20 
   Вчора / Yesterday (2019) 1080p Ukr/Eng | Sub Eng/Fre/Spa antik_2008  4 / 0   8.03 GB   2019-11-16 13:12 
   Вчора / Yesterday (2019) antik_2008  16 / 0   1.47 GB   2019-11-16 13:05 
   Вчора / Yesterday (2019) AVC Ukr/Eng | Sub Eng 11FrYkT  8 / 0   1.95 GB   2019-11-15 17:41 
   Вчора / Yesterday (2019) 720p Ukr/Eng | Sub Eng 11FrYkT  3 / 0   7.57 GB   2019-11-15 17:38 
bot 
робот


З нами з: 30.09.07
Востаннє: 26.05.05
Повідомлень: 25942

2019-10-20 22:11  
Тему перенесено з Анонси релізів до форуму Фільми в HD


antik_2008

Anonymous 







2019-11-16 13:43  
16.11.2019 Роздачу оновлено


Замінив доріжку на якіснішу

Anonymous 







2019-12-26 11:57  
Особиста оцінка: 8 - мені сподобалося
Ваш часовий пояс: GMT + 2 Години

Нова тема   Відповісти