Історія іграшок 4 / Toy Story 4 (2019) 1080p Ukr/Eng | Sub Eng

Нові коментарі

Нова тема   Відповісти
Автор Повідомлення
Anonymous 







2019-10-17 11:00  
Історія іграшок 4 / Toy Story 4 (2019) 1080p Ukr/Eng | Sub Eng

Альтернативні постери













Жанр: анімація, сімейний, пригодницький, комедія, фентезі
Країна: США

Оскар за найкращий анімаційний фільм



Кінокомпанія: Walt Disney Pictures, Pixar Animation Studios
Режисер: Джош Кулі / Josh Cooley
Ролі озвучують: Том Генкс, Тім Аллен, Енні Поттс, Тоні Хейл, Кіген-Майкл Кі, Мадлен МакГроу, Крістіна Хендрікс, Джордан Піл, Кіану Рівз, Еллі Матсумура

Сюжет:
Найвідоміші аніматори світу, оскароносні Disney/Pixar запрошують на зустріч з улюбленими героями! З переїздом у новий дім життя ковбоя Вуді і космічного рейнджера Базза перевертається з ніг на голову. Залишивши турботи, герої змушені об'єднатися, щоб вирушити у захопливу і небезпечну мандрівку, рівної якій ще не було у світі Іграшок!
Офіційні українські тизер та трейлер:

тизер:


трейлер:

Рейтинг MPAA: G - немає вікових обмежень
Вікова категорія: 6+
Тривалість: 01:40:03
Якість: 1080p

Відео:
кодек:
розмір кадру: 1920х804
бітрейт: 13,7 Мб/с

Аудіо # 1:
мова: українська
переклад: професійний дубльований | студія LeDoyen
кодек: 5.1
бітрейт: 1509 кб/с

Аудіо # 2:
мова: українська
переклад: професійний дубльований | студія LeDoyen
кодек: 5.1
бітрейт: 640 кб/с

Аудіо # 3:
мова: англійська
переклад: оригінал
кодек: E- 7.1
бітрейт: 1536 кб/с

Аудіо # 4:
мова: англійська
переклад: коментарі
кодек: 2.0
бітрейт: 320 кб/с

Субтитри # 1-4:
мова: англійська (повні, SDH, на коментарі 2 шт.)
тип: програмні (м'які)
формат: *.srt

Збережено оригінальні поіменовані розділи, як на Blu-ray
Info та log:
Код:

Complete name               : Toy Story 4 (2019) [Ukr,Eng sub.Eng] 1080p [Hurtom].
Format                      :
Format version              : Version 4
File size                   : 12.4 GiB
Duration                    : 1 h 40 min
Overall bit rate            : 17.7 Mb/s
Movie name                  : Історія іграшок 4 / Toy Story 4 (2019) [Ukr,Eng sub.Eng] 1080p [Hurtom]
Encoded date                : UTC 2019-10-17 10:58:44
Writing application         : v38.0.0 ('The Silent Type') 64-bit
Writing library             : libebml v1.3.9 + v1.5.2
Cover                       : Yes
Attachments                 : cover.jpg

Video
ID                          : 1
Format                      : AVC
Format/Info                 : Advanced Video Codec
Format profile              : [email protected]
Format settings             : CABAC / 5 Ref Frames
Format settings, CABAC      : Yes
Format settings, Reference  : 5 frames
Codec ID                    : V_MPEG4/ISO/AVC
Duration                    : 1 h 40 min
Bit rate                    : 13.7 Mb/s
Width                       : 1 920 pixels
Height                      : 804 pixels
Display aspect ratio        : 2.40:1
Frame rate mode             : Constant
Frame rate                  : 23.976 (24000/1001) FPS
Color space                 : YUV
Chroma subsampling          : 4:2:0
Bit depth                   : 8 bits
Scan type                   : Progressive
Bits/(Pixel*Frame)          : 0.369
Stream size                 : 9.55 GiB (77%)
Title                       : Історія іграшок 4 / Toy Story 4 (2019) 1080p [LoRD]
Writing library             : core 158 r2984+49 ~ LoRD
Encoding settings           : cabac=1 / ref=5 / deblock=1:-3:-3 / analyse=0x3:0x133 / me=umh / subme=10 / psy=1 / fade_compensate=0.00 / psy_rd=1.05:0.00 / mixed_ref=1 / me_range=36 / chroma_me=1 / trellis=2 / 8x8dct=1 / cqm=0 / deadzone=21,11 / fast_pskip=0 / chroma_qp_offset=-2 / threads=12 / lookahead_threads=2 / sliced_threads=0 / nr=0 / decimate=0 / interlaced=0 / bluray_compat=0 / constrained_intra=0 / fgo=0 / bframes=8 / b_pyramid=2 / b_adapt=2 / b_bias=0 / direct=3 / weightb=1 / open_gop=0 / weightp=2 / keyint=250 / keyint_min=23 / scenecut=40 / intra_refresh=0 / rc_lookahead=60 / rc=2pass / mbtree=0 / bitrate=13675 / ratetol=1.0 / qcomp=0.60 / qpmin=0:0:0 / qpmax=69:69:69 / qpstep=4 / cplxblur=20.0 / qblur=0.5 / vbv_maxrate=62500 / vbv_bufsize=78125 / nal_hrd=none / filler=0 / ip_ratio=1.20 / pb_ratio=1.40 / aq=3:0.80 / aq-sensitivity=10.00 / aq-factor=1.00:1.00:1.00 / aq2=0 / aq3=0 / zones=1053,1057,b=1.4/3150,3161,b=1.3/3212,3276,b=1.4/8890,9490,b=1.3/10685,10710,b=1.3/28084,28219,b=1.2/47587,47913,b=1.2/48923,48974,b=1.4/50837,50907,b=1.3/52206,52217,b=1.4/64298,65041,b=1.3/65665,66964,b=1.3/68167,68488,b=1.4/69146,69198,b=1.3/89010,89110,b=1.3/100080,100090,b=1.3/103940,104055,b=1.3/113475,113513,b=1.3/129329,132721,b=1.3/142831,143567,b=1.3
Language                    : English
Default                     : Yes
Forced                      : No

Audio #1
ID                          : 2
Format                      :
Format/Info                 : Digital Theater Systems
Codec ID                    : A_DTS
Duration                    : 1 h 40 min
Bit rate mode               : Constant
Bit rate                    : 1 509 kb/s
Channel(s)                  : 6 channels
Channel layout              : C L R Ls Rs LFE
Sampling rate               : 48.0 kHz
Frame rate                  : 93.750 FPS (512 SPF)
Bit depth                   : 24 bits
Compression mode            : Lossy
Stream size                 : 1.05 GiB (9%)
Title                       : Dub [LeDoyen] 5.1 1509 Kbps [Hurtom]
Language                    : Ukrainian
Default                     : Yes
Forced                      : No

Audio #2
ID                          : 3
Format                      : AC-3
Format/Info                 : Audio Coding 3
Commercial name             : Dolby Digital
Codec ID                    : A_AC3
Duration                    : 1 h 40 min
Bit rate mode               : Constant
Bit rate                    : 640 kb/s
Channel(s)                  : 6 channels
Channel layout              : L R C LFE Ls Rs
Sampling rate               : 48.0 kHz
Frame rate                  : 31.250 FPS (1536 SPF)
Compression mode            : Lossy
Stream size                 : 458 MiB (4%)
Title                       : Dub [LeDoyen] 5.1 640 Kbps [Hurtom]
Language                    : Ukrainian
Service kind                : Complete Main
Default                     : No
Forced                      : No

Audio #3
ID                          : 4
Format                      : E-AC-3
Format/Info                 : Enhanced AC-3
Commercial name             : Dolby Digital Plus
Format profile              : Blu-ray Disc
Codec ID                    : A_EAC3
Duration                    : 1 h 40 min
Bit rate mode               : Constant
Bit rate                    : 1 536 kb/s
Channel(s)                  : 8 channels
Channel layout              : L R C LFE Ls Rs Lb Rb
Sampling rate               : 48.0 kHz
Frame rate                  : 31.250 FPS (1536 SPF)
Compression mode            : Lossy
Stream size                 : 1.07 GiB (9%)
Title                       : Original, E- 7.1 1536 Kbps
Language                    : English
Service kind                : Complete Main
Default                     : No
Forced                      : No

Audio #4
ID                          : 5
Format                      : AC-3
Format/Info                 : Audio Coding 3
Commercial name             : Dolby Digital
Codec ID                    : A_AC3
Duration                    : 1 h 40 min
Bit rate mode               : Constant
Bit rate                    : 320 kb/s
Channel(s)                  : 2 channels
Channel layout              : L R
Sampling rate               : 48.0 kHz
Frame rate                  : 31.250 FPS (1536 SPF)
Compression mode            : Lossy
Stream size                 : 229 MiB (2%)
Title                       : Commentary
Language                    : English
Service kind                : Complete Main
Default                     : No
Forced                      : No

Text #1
ID                          : 6
Format                      : UTF-8
Codec ID                    : S_TEXT/UTF8
Codec ID/Info               : UTF-8 Plain Text
Duration                    : 1 h 39 min
Bit rate                    : 63 b/s
Count of elements           : 1806
Stream size                 : 46.3 KiB (0%)
Title                       : Eng full
Language                    : English
Default                     : No
Forced                      : No

Text #2
ID                          : 7
Format                      : UTF-8
Codec ID                    : S_TEXT/UTF8
Codec ID/Info               : UTF-8 Plain Text
Duration                    : 1 h 39 min
Bit rate                    : 76 b/s
Count of elements           : 2062
Stream size                 : 55.5 KiB (0%)
Title                       : Eng SDH
Language                    : English
Default                     : No
Forced                      : No

Text #3
ID                          : 8
Format                      : UTF-8
Codec ID                    : S_TEXT/UTF8
Codec ID/Info               : UTF-8 Plain Text
Duration                    : 1 h 39 min
Bit rate                    : 107 b/s
Count of elements           : 1695
Stream size                 : 78.6 KiB (0%)
Title                       : Eng Commentary
Language                    : English
Default                     : No
Forced                      : No

Text #4
ID                          : 9
Format                      : UTF-8
Codec ID                    : S_TEXT/UTF8
Codec ID/Info               : UTF-8 Plain Text
Duration                    : 1 h 39 min
Bit rate                    : 113 b/s
Count of elements           : 1769
Stream size                 : 83.3 KiB (0%)
Title                       : Eng SDH Commentary
Language                    : English
Default                     : No
Forced                      : No

Menu
00:00:00.000                : en:Prologue
00:05:39.797                : en:Playtime
00:11:21.097                : en:Classroom
00:15:06.238                : en:Forky Introduction
00:19:01.139                : en:RV Trip
00:20:52.042                : en:Forky Jump
00:22:43.820                : en:Woody on the Road
00:26:11.111                : en:Bo in the Window
00:27:47.081                : en:Meet Gabby Gabby
00:32:11.846                : en:Bonnie Wakes
00:36:17.425                : en:Bo Meet
00:40:34.640                : en:Forky Bait
00:42:56.698                : en:Ducky and Bunny
00:44:26.872                : en:Ferris Wheel
00:46:39.379                : en:Store Roof
00:48:06.174                : en:Flat Tire
00:49:18.663                : en:Lost Sheep
00:52:25.809                : en:The Key
00:53:58.568                : en:Welcome Mat
00:54:34.479                : en:Recruit Duke
00:59:06.959                : en:Coming Together
01:01:30.644                : en:Break In
01:04:40.751                : en:Bo Leaves
01:07:25.249                : en:Gabby Standoff
01:09:31.041                : en:Leaving Town
01:10:54.833                : en:Second Thoughts
01:12:05.153                : en:Rejection
01:15:03.039                : en:Saving Gabby
01:17:29.769                : en:GPS
01:18:04.846                : en:Kid Search
01:19:21.840                : en:Plan B
01:19:48.116                : en:Lost Girl
01:22:24.939                : en:Goodbye
01:29:00.292                : en:End Credits

Код:

[info]: frame I:1315   Avg QP:13.23 size:295735
[info]: frame P:34050  Avg QP:14.52 size:142151
[info]: frame B:108574 Avg QP:16.57 size:46312
[info]: consecutive  B-frames:4.2% 3.8% 7.4% 17.9% 16.0% 46.1% 3.2% 0.5% 0.8%
Encoded 143939 frames, 8.108 fps, 13668.74 kb/s, 9550 MB - Encoding Duration 05:49:03


LoRD написано:
#NOTES: filtered few scenes with low QP.

Оригінал <---------->Цей ріп



Джерело: &
Подяка Hanway за синхронізацію звуку.



 Трекер:    Зареєстрований   

Завантажити / скачати мультфільм українською



відео для новачків



 Зареєстрований:   2019-10-17 13:54
 Розмір:   12.36 GB 
 Оцінка мультфільму:   9.6/10 (Голосів: 37)
   
Cerguk 
Свій


З нами з: 30.09.09
Востаннє: 26.02.20
Повідомлень: 100

2019-10-17 15:00  
Anonymous написано:
Можна завантажувати.

Ну нарешті, дякую ! Щось з цим мультом ми відстали від москальського релізу майже на 2 тижні, некруто.
Параметри звуку нічогенькі такі, ще б хоча б в кожному другому фільмі були б такі Happy

remingtone 
Новенький


З нами з: 08.11.10
Востаннє: 23.01.20
Повідомлень: 12

2020-01-04 20:36  
гарний мульт і розмір файлу оптимальний
Anonymous 







2020-02-10 09:14  
Додав інформацію про премію Оскар.
Ваш часовий пояс: GMT + 2 Години

Нова тема   Відповісти