Останній Рубіж (Сезон 2) / Final space (Season 2) (2019) 720p Ukr/Eng | Sub Eng

Нові коментарі

Нова тема   Відповісти
Автор Повідомлення
Anonymous 







2019-10-16 21:50  
Останній Рубіж (Сезон 2) / Final space (Season 2) (2019) 720p Ukr/Eng | Sub Eng



Жанр: комедія, пригоди, фантастика
Країна: США



Кінокомпанія: Conaco, Jam Filled Entertainment, ShadowMachine
Режисер: Майк Робертс
Актори: Фред Арміс, Том Кенні, Олен Роджерс, Тіка Самптер, Девід Теннант, Коуту Гелловей, Стівен Ян, Джон Ді Маджіо, Конан О’Брайен, Джина Торрес

Сюжет:
Ґері Ґудспід – невдаха, який потрапив на тюремний космічний корабель за випадкове знищення майже сотні одиниць військової техніки і одного поганенького ресторану. Перебуваючи в ув’язненні, він записує відео послання для дівчини, яку бачив лише раз в житті, лагодить супутники і лається з підлим штучним інтелектом, намагаючись випросити собі печиво.
В один із сотні однакових днів на Ґері в космосі натикається зелена кулька з милою пикою. З неї і починається пригода, в якій знайшлося місце і древньому космічному злу, і карликовому антагоністові з армією тупих солдат, і небезпеки вселенського масштабу.


Тривалість: 1 серія: ~ 22 хв. (цілком серій: 13 з 13)
Перелік серій
1 Jun 24, 2019 The Toro Regatta
2 Jul 01, 2019 The Happy Place
3 Jul 08, 2019 The Grand Surrender
4 Jul 15, 2019 The Other Side
5 Jul 22, 2019 The Notorious Mrs. Goodspeed
6 Jul 29, 2019 Arachnitects
7 Aug 05, 2019 The First Times They Met
8 Aug 12, 2019 The Remembered
9 Aug 19, 2019 The Closer You Get
10 Aug 26, 2019 The Lost Spy
11 Sep 09, 2019 The Set Up
12 Sep 16, 2019 Descent Into Darkness
13 Sep 23, 2019 The Sixth Key
Якість:
Відео:
кодек:
розмір кадру: 1280 х 720
бітрейт: ~ 4000 кб/с

Аудіо # 1: &
мова: українська
переклад: двоголосий закадровий
кодек: 2.0
бітрейт: 192 кб/с
Інформація про озвучення:
Переклад: Aspid
Ролі озвучували: Listik & Trina_D
Аудіо # 2:
мова: англійська
переклад: оригінал
кодек: E- 5.1
бітрейт: 640 кб/с

Субтитри:
мова: англійська
тип: програмні (м'які)
формат: *.srt
Info
Video
ID : 1
Format : AVC
Format/Info : Advanced Video Codec
Format profile : [email protected]
Format settings : CABAC / 4 Ref Frames
Format settings, CABAC : Yes
Format settings, Reference : 4 frames
Codec ID : V_MPEG4/ISO/AVC
Duration : 21 min 32 s
Bit rate mode : Constant
Bit rate : 4 064 kb/s
Nominal bit rate : 6 000 kb/s
Width : 1 280 pixels
Height : 720 pixels
Display aspect ratio : 16:9
Frame rate mode : Constant
Frame rate : 23.976 (24000/1001) FPS
Color space : YUV
Chroma subsampling : 4:2:0
Bit depth : 8 bits
Scan type : Progressive
Bits/(Pixel*Frame) : 0.184
Stream size : 626 MiB (83%)
Language : English
Default : Yes
Forced : No
Color range : Limited
Color primaries : BT.709
Transfer characteristics : BT.709
Matrix coefficients : BT.709

Audio #1
ID : 2
Format : AC-3
Format/Info : Audio Coding 3
Commercial name : Dolby Digital
Codec ID : A_AC3
Duration : 21 min 32 s
Bit rate mode : Constant
Bit rate : 192 kb/s
Channel(s) : 2 channels
Channel layout : L R
Sampling rate : 48.0 kHz
Frame rate : 31.250 FPS (1536 SPF)
Compression mode : Lossy
Stream size : 29.6 MiB (4%)
Title : DVO - Dzuski
Language : Ukrainian
Service kind : Complete Main
Default : Yes
Forced : No

Audio #2
ID : 3
Format : E-AC-3
Format/Info : Enhanced AC-3
Commercial name : Dolby Digital Plus
Codec ID : A_EAC3
Duration : 21 min 32 s
Bit rate mode : Constant
Bit rate : 640 kb/s
Channel(s) : 6 channels
Channel layout : L R C LFE Ls Rs
Sampling rate : 48.0 kHz
Frame rate : 31.250 FPS (1536 SPF)
Compression mode : Lossy
Stream size : 98.6 MiB (13%)
Language : English
Service kind : Complete Main
Default : No
Forced : No

Text
ID : 4
Format : UTF-8
Codec ID : S_TEXT/UTF8
Codec ID/Info : UTF-8 Plain Text
Duration : 21 min 25 s
Bit rate : 92 b/s
Count of elements : 547
Stream size : 14.5 KiB (0%)
Title : SDH
Language : English
Default : No
Forced : No
Скріншоти






Джерело: & &
Особиста оцінка: 8/10


Авторський реліз (завантажувати можна без реєстрації)
 Трекер:    Зареєстрований   

Завантажити / скачати мультфільм українською



відео для новачків



 Зареєстрований:   2019-10-16 21:50
 Розмір:   7.93 GB 
 Оцінка мультсеріалу:   9.1/10 (Голосів: 11)
   
Dark Invader 
Модератор відео


З нами з: 06.01.11
Востаннє: 11.04.21
Повідомлень: 3175

2019-10-16 23:46  
Anonymous написано:

Перелік серій
Chapter 1 - 13.

В цьому сезоні серії вже мають назви. Виправіть.

Anonymous 







2019-10-16 23:49  
Dark Invader написано:
Виправіть

додав

s-bevz 
Новенький


З нами з: 01.04.11
Востаннє: 08.04.21
Повідомлень: 10

2020-06-14 17:36  
Є хто на роздачу?)
zim333 
Поважний учасник


З нами з: 15.07.11
Востаннє: 04.04.21
Повідомлень: 163

2021-03-22 20:20  
Вже стартував 3-й сезон. Буде продовження озвучення?
Masanchick 
VIP


З нами з: 08.04.11
Востаннє: 11.04.21
Повідомлень: 1607

2021-03-22 20:26  
zim333
Буде від Дзусьок бачив анонс в телеграмі, і від Сімпсонів юа своя озвучка, напевне від Цікаваї ідеї

zim333 
Поважний учасник


З нами з: 15.07.11
Востаннє: 04.04.21
Повідомлень: 163

2021-03-22 21:59  
Masanchick написано:
Буде від Дзусьок бачив анонс в телеграмі

Круто! Значить голоси не повинні змінитись.
Masanchick написано:
і від Сімпсонів юа своя озвучка, напевне від Цікаваї ідеї

Ну це по-суті одна і та ж студія). Але я щось не бачив ніде анонсу, можливо і не будуть робити.

Masanchick 
VIP


З нами з: 08.04.11
Востаннє: 11.04.21
Повідомлень: 1607

2021-03-22 22:11  
zim333
вони в телеграмі писали, я питав коли чекати Великого рота
Цитата:
Ох, як тільки, так і одразу. У нас попереду Сонячні протилежності, Поліція Парадайз, Останній рубіж. Десь між цими і Рота зробимо.

zim333 
Поважний учасник


З нами з: 15.07.11
Востаннє: 04.04.21
Повідомлень: 163

2021-03-22 22:12  
Masanchick написано:
вони в телеграмі писали, я питав коли чекати Великого рота

А коли це було, давно?)

Masanchick 
VIP


З нами з: 08.04.11
Востаннє: 11.04.21
Повідомлень: 1607

2021-03-22 22:16  
zim333
18 лютого

simpsonsua 
VIP


З нами з: 13.03.18
Востаннє: 10.04.21
Повідомлень: 357

2021-03-23 00:18  
Не будемо робити! Наразі плануємо тільки Сімпсони та Сім'янина.
Masanchick 
VIP


З нами з: 08.04.11
Востаннє: 11.04.21
Повідомлень: 1607

2021-03-23 00:23  
simpsonsua
Що і поліції парадайз не буде?

zim333 
Поважний учасник


З нами з: 15.07.11
Востаннє: 04.04.21
Повідомлень: 163

2021-03-23 03:21  
Masanchick написано:
Що і поліції парадайз не буде?

Виходить, що не буде. Sad (2)

zim333 
Поважний учасник


З нами з: 15.07.11
Востаннє: 04.04.21
Повідомлень: 163

2021-03-28 02:47  
Вже вийшла перша серія від Дзусьок. Хтось буде робити реліз? Бо вони щось не збираються. Sad (2)
Ваш часовий пояс: GMT + 2 Години

Нова тема   Відповісти