Молодий Морс / Ендевор (Сезони 1-5) / Endeavour (Seasons 1-5) (2012-2018) 720p Ukr/Eng | Sub Eng

Нові коментарі

Нова тема   Відповісти
Автор Повідомлення
Anonymous 







2019-10-16 20:37  
Молодий Морс / Ендевор (Сезони 1-5) / Endeavour (Seasons 1-5) (2012-2018) 720p Ukr/Eng | Sub Eng

Молодий Морс / Ендевор (Сезони 1-5) / Endeavour (Seasons 1-5) (2012-2018) 720p Ukr/Eng | Sub Eng


Жанр: кримінальний, драма, детектив
Країна: Велика Британія



Кінокомпанія: Mammoth Screen, Masterpiece, ITV Studios
Актори: Шон Еванс, Роджер Аллам, Антон Лессер, Шейн Рігбі, Джеймс Бредшоу.

Сюжет:
1965 рік. Ендевор Морс розслідує зникнення школярки, по ходу справи розуміючи, що повертається назад в Оксфорд - до місця, яке незабаром вирішить його подальшу долю. Він бере участь в великому розслідуванні вбивства, головним інспектором якого є Фред Фьоздей. Ендевор зі справою опиняється в тупику, і його усувають від справи. Знову Зіткнувшись зі своїм не дуже приємним минулим, він вирішує почати похід в ім'я справедливості. Йому доведеться зіткнутися з безліччю неприємностей ...


Тривалість: 1 серія: 90хв (цілком серій: 23 з 23)
Перелік серій
1 сезон
0. Pilot
1. Girl
2. Fugue
3. Rocket
4. Home

2 сезон
1. Trove
2. Nocturne
3. Sway
4. Neverland

3 сезон
1.Ride
2.Arcadia
3.Prey
4.Coda

4 сезон
1.Game
2.Canticle
3.Lazaretto
4.Harvest

5 сезон
1.Muse
2.Cartouche
3.Passenger
4.Colours
5.Quartet
6.Icarus
Якість:
Відео:
кодек:
розмір кадру: 1280 х 720
бітрейт: 5000 кб/с

Аудіо # 1:
мова: українська
переклад: багатоголосий закадровий | 34 & Донбас & TV5
кодек: 2.0
бітрейт: 192 кб/с

Аудіо # 2:
мова: англійська
переклад: оригінал
кодек: 2.0 | 2.0 | 5.1
бітрейт: 192 | 554 | 640 кб/с

Субтитри:
мова: українська
тип: програмні (м'які)
формат: *.srt
*: на вирізані телеканалами місця у 01x00, 01x03, 02x01, 03x01, 03x02, 03x03, 04x01, 05x04.

Субтитри:
мова: англійська
тип: програмні (м'які)
формат: *.srt
Info
Video
ID : 1
Format : AVC
Format/Info : Advanced Video Codec
Format profile : [email protected]
Format settings : CABAC / 9 Ref Frames
Format settings, CABAC : Yes
Format settings, Reference fra : 9 frames
Codec ID : V_MPEG4/ISO/AVC
Duration : 1 h 42 min
Bit rate : 5 000 kb/s
Width : 1 280 pixels
Height : 720 pixels
Display aspect ratio : 16:9
Frame rate mode : Constant
Frame rate : 23.976 (24000/1001) FPS
Color space : YUV
Chroma subsampling : 4:2:0
Bit depth : 8 bits
Scan type : Progressive
Bits/(Pixel*Frame) : 0.226
Stream size : 3.58 GiB (93%)
Writing library : core 140 r2377kMod 1ca7bb9
Encoding settings : cabac=1 / ref=9 / deblock=1:-3:-3 / analyse=0x3:0x113 / me=umh / subme=11 / psy=1 / fade_compensate=0.00 / psy_rd=1.00:0.00 / mixed_ref=1 / me_range=32 / chroma_me=1 / trellis=2 / 8x8dct=1 / cqm=0 / deadzone=21,11 / fast_pskip=0 / chroma_qp_offset=-3 / threads=12 / lookahead_threads=2 / sliced_threads=0 / nr=0 / decimate=1 / interlaced=0 / bluray_compat=0 / constrained_intra=0 / fgo=0 / bframes=9 / b_pyramid=2 / b_adapt=2 / b_bias=0 / direct=1 / weightb=1 / open_gop=0 / weightp=2 / keyint=230 / keyint_min=23 / scenecut=40 / intra_refresh=0 / rc_lookahead=40 / rc=2pass / mbtree=0 / bitrate=5000 / ratetol=1.0 / qcomp=0.65 / qpmin=0 / qpmax=69 / qpstep=4 / cplxblur=20.0 / qblur=0.5 / vbv_maxrate=50000 / vbv_bufsize=62500 / nal_hrd=none / filler=0 / ip_ratio=1.40 / pb_ratio=1.30 / aq=3:0.85
Language : English
Default : Yes
Forced : No

Audio #1
ID : 2
Format : AC-3
Format/Info : Audio Coding 3
Commercial name : Dolby Digital
Codec ID : A_AC3
Duration : 1 h 42 min
Bit rate mode : Constant
Bit rate : 192 kb/s
Channel(s) : 2 channels
Channel layout : L R
Sampling rate : 48.0 kHz
Frame rate : 31.250 FPS (1536 SPF)
Compression mode : Lossy
Stream size : 141 MiB (4%)
Title : MVO - 34 & Донбас & TV5
Language : Ukrainian
Service kind : Complete Main
Default : Yes
Forced : No

Audio #2
ID : 3
Format : AC-3
Format/Info : Audio Coding 3
Commercial name : Dolby Digital
Codec ID : A_AC3
Duration : 1 h 42 min
Bit rate mode : Constant
Bit rate : 192 kb/s
Channel(s) : 2 channels
Channel layout : L R
Sampling rate : 48.0 kHz
Frame rate : 31.250 FPS (1536 SPF)
Compression mode : Lossy
Stream size : 141 MiB (4%)
Language : English
Service kind : Complete Main
Default : No
Forced : No

Text #1
ID : 4
Format : UTF-8
Codec ID : S_TEXT/UTF8
Codec ID/Info : UTF-8 Plain Text
Duration : 4 min 58 s
Bit rate : 162 b/s
Count of elements : 80
Stream size : 5.90 KiB (0%)
Language : Ukrainian
Default : Yes
Forced : No

Text #2
ID : 5
Format : UTF-8
Codec ID : S_TEXT/UTF8
Codec ID/Info : UTF-8 Plain Text
Duration : 1 h 41 min
Bit rate : 66 b/s
Count of elements : 1806
Stream size : 49.1 KiB (0%)
Language : English
Default : No
Forced : No

Menu
00:00:00.000 : en:Settling In
00:14:33.372 : en:Filling in the Background
00:28:52.397 : en:Crosswords
00:39:41.129 : en:Not Oxford Materials
00:47:55.414 : en:Ozymandias
01:03:57.792 : en:Teddy's Circle
01:22:36.243 : en:A Development
01:29:30.574 : en:The Almost-Perfect Crime
Скріншоти











Подяка: Пану, що побажав залишитися анонімним за запис сирих доріжок.
Джерело:


Золотий реліз (завантажене не впливає на рейтинг)
 Трекер:    Зареєстрований   

Завантажити / скачати серіал українською



відео для новачків



 Зареєстрований:   2020-02-10 17:28
 Розмір:   104.03 GB 
 Оцінка серіалу:   9.8/10 (Голосів: 46)
   
Barilo 
Свій


З нами з: 22.05.11
Востаннє: 28.11.20
Повідомлень: 60

2019-10-16 22:14  
Шикарний серіал. Як же я чекав його українською. Величезна подяка всім хто долучився, переклав і виклав його тут
[email protected] 
Новенький


З нами з: 02.11.19
Востаннє: 19.11.20
Повідомлень: 2

2019-11-02 10:28  
Теж чекала з нетерпінням. Велика подяка за всім причетним!
lkdsqx 
Новенький


З нами з: 28.08.11
Востаннє: 29.11.20
Повідомлень: 14

2019-11-12 20:36  
Якісний серіал. Раджу всім.
Anonymous 







2019-11-18 15:51  
Оновлено відеоряд до першого сезону на кращий та додано другий сезон. Тім хто вже вантажив перший сезон доведеться видалити старий реліз і повністю завантажити цей.

zaika 
VIP


З нами з: 01.07.12
Востаннє: 29.11.20
Повідомлень: 1242

2019-11-27 08:27  
Один з кращих серіалів, яких бачив будь коли. Особливо третя серія другого сезону. І поставлений серіал на фоні фантастичної середньовічної архітектури Оксфорда. Справжній англійський серіал, дещо іронічний, з дуже вихованими і професіональними героями. Хоча корупція теж присутня, а як без неї в середині 20 -го століття. І пострадалі в серіалі - детектив Морс і головний інспектор Фред. Цікаво, а продовження буде? Не можна лишати в буцегарні безкомпромісного інтелектуала Морса. 10/10.
Anonymous 







2019-12-01 09:53  
zaika
Третій сезон показують по неділях і по одній серії.
Наступної неділі здається покажуть вже 4у серію і я почну зводити.

zaika 
VIP


З нами з: 01.07.12
Востаннє: 29.11.20
Повідомлень: 1242

2019-12-02 15:28  
Anonymous
Дякую.

Anonymous 







2019-12-31 13:11  
Додав 4 сезон.
kolyada.oleg 
Новенький


З нами з: 17.08.14
Востаннє: 29.11.20
Повідомлень: 4

2020-02-08 19:41  
Неймовірний серіал! Вперше перебуваю у стані постійного очікування продовження.
Величезна подяка організатору озвучення та усім його помічникам.

Запитання – чи можна Вам замовити озвучення такого, що відсутнє на Толоці?
Наприклад:
1. Stanno tutti bene (1990; Diretto da Giuseppe Tornatore; Marcello Mastroianni; Italia).
2. Grégoire Moulin contre l'humanité (2000; Réalisation – Artus de Penguern; France)

igor911 
Модератор відео


З нами з: 18.01.08
Востаннє: 29.11.20
Повідомлень: 15083

2020-02-09 00:21  
kolyada.oleg, тут озвучення з ТБ, пишіть побажання на відповідні телеканали або командам що займаються власним озвученням або в тему пропозицій https://toloka.to/t41017
Anonymous 







2020-02-10 17:28  
Додав 5 сезон.
zdlr 
Свій


З нами з: 07.12.12
Востаннє: 30.11.20
Повідомлень: 76

2020-03-24 22:11  
Чи передбачаються ще сезони? 6 і далі? Непогане кіно.
Anonymous 







2020-03-25 21:51  
zdlr написано:
Чи передбачаються ще сезони? 6 і далі?


Якщо й покажуть то не скоро бо зараз йде серіал Полдарк замість Морса.

НЕСТОР МАХНО 
Свій


З нами з: 28.04.10
Востаннє: 30.11.20
Повідомлень: 119

2020-04-02 16:13  
zaika
другий сезон третя серія так вражаючий сюжет!!!!!!!!!

Додано через 46 секунд:

дуже дуже класний серіал 11\10)))

НЕСТОР МАХНО 
Свій


З нами з: 28.04.10
Востаннє: 30.11.20
Повідомлень: 119

2020-04-22 13:34  
все додивився (((((((((починаю вже третій серіал дивится але після МОРСА щочь нічого не подобаєтся
zombien 
Новенький


З нами з: 03.02.19
Востаннє: 31.05.20
Повідомлень: 1

2020-04-26 09:40  
Подивився нульову серію, шкода переклад досить не точний. В оригіналі значно гостріші і відвертіші висловлювання. Бракує повних українських субтитрів.
І-р 
Свій


З нами з: 21.07.16
Востаннє: 30.11.20
Повідомлень: 125

2020-05-01 15:28  
Для тих, хто любить і вміє думати.
Cartwright 
VIP


З нами з: 23.03.13
Востаннє: 29.11.20
Повідомлень: 393

2020-07-01 20:18  
Серіал безперечно чудовий, проте єдине що мене дивує в ньому, так це персонаж Джоан. Де-факто вона з третього сезону стала центральною в основній сюжетній лінії серіалу, проте в неї найменша кількість екранного часу. Її відносини з батьком і Морсом центральні на весь серіал, а її використовують в кожній серії приблизно для трьох коротких сцен, чим просто підігрівають інтерес. І все. Така собі "рушниця", яку постійно протирають в кожній серії, а вона ніяк не хоче стріляти в потрібному напрямку.
erithion 
Новенький


З нами з: 21.12.14
Востаннє: 29.11.20
Повідомлень: 10

2020-07-05 22:29  
Шикарний серіал! Дякую, передивлюсь цього разу в українському перекладі.
pvm65 
Свій


З нами з: 02.01.16
Востаннє: 30.11.20
Повідомлень: 113

2020-11-15 13:29  
Чи будуть наступні сезони українською?
Ваш часовий пояс: GMT + 2 Години

Нова тема   Відповісти