Сонцестояння / Midsommar (2019) 1080p H.265 Ukr/Eng | Sub Eng

Нові коментарі

Нова тема   Відповісти
Автор Повідомлення
Anonymous 







2019-10-16 15:43  
Сонцестояння / Midsommar (2019) 1080p H.265 Ukr/Eng | Sub Eng

Сонцестояння / Midsommar (2019) 1080p H.265 Ukr/Eng | Sub Eng


Жанр: детектив, драма, жахи, трилер
Країна: США
Кінокомпанія: Proton Cinema, B-Reel Films, Square Peg
Режисер: Арі Астер
Актори: Флоренс П'ю, Джек Рейнор, Вільям Джексон Гарпер, Уілл Поултер, Гуннель Фред

Сюжет:
Молода пара відправляється в літню відпустку. По дорозі вони заїжджають в шведське село, жителі якої проводять традиційний сезонний обряд. Недавня смерть батьків одного з героїв змушує відчувати страх перед цим скандинавським звичаєм.

Тривалість: 02:27:05
Якість:

Відео:
кодек: H.265 (HEVC)
розмір кадру: 1920 x 960
бітрейт: 7 694 кб/с
бітова глибина: 10 біт

Увага! Перед завантаженням переконайтесь, що ваш пристрій відтворення (та/або ПЗ) підтримує H.265 (HEVC)

Аудіо # 1:
мова: українська
переклад: професійний дубльований
кодек: AC-3 5.1
бітрейт: 384 кб/с

Аудіо # 2:
мова: англійська
переклад: оригінал
кодек: 5.1
бітрейт: 1510 кб/с

Субтитри # 1-2: (Full, SDH)
мова: англійська
тип: програмні (м'які)
формат: *.srt


Info
Код:
General
Unique ID                                : 92656393837130514957205732913192823485 (0x45B4F8EB7850329E8EB3D5AAE18AEABD)
Complete name                            : Midsommar (2019) 1080p H.265 [UKR_ENG] [Hurtom].
Format                                   :
Format version                           : Version 4
File size                                : 9.86 GiB
Duration                                 : 2 h 27 min
Overall bit rate                         : 9 594 kb/s
Movie name                               : Сонцестояння / Midsommar (2019)
Encoded date                             : UTC 2019-11-02 10:57:46
Writing application                      : v20.0.0 ('I Am The Sun') 64-bit
Writing library                          : libebml v1.3.5 + v1.4.8
Cover                                    : Yes
Attachments                              : Cover.jpg

Video
ID                                       : 1
Format                                   : HEVC
Format/Info                              : High Efficiency Video Coding
Format profile                           : Main [email protected]@High
Codec ID                                 : V_MPEGH/ISO/HEVC
Duration                                 : 2 h 27 min
Bit rate                                 : 7 694 kb/s
Width                                    : 1 920 pixels
Height                                   : 960 pixels
Display aspect ratio                     : 2.000
Frame rate mode                          : Constant
Frame rate                               : 23.976 (24000/1001) FPS
Color space                              : YUV
Chroma subsampling                       : 4:2:0
Bit depth                                : 10 bits
Bits/(Pixel*Frame)                       : 0.174
Stream size                              : 7.91 GiB (80%)
Title                                    : Сонцестояння / Midsommar (2019)
Writing library                          : x265 3.1+11-de920e0a3183:[Windows][clang 8.0.1][64 bit] 10bit
Encoding settings                        : cpuid=1049583 / frame-threads=5 / numa-pools=4 / wpp / no-pmode / no-pme / no-psnr / no-ssim / log-level=3 / input-csp=1 / input-res=1920x960 / interlace=0 / total-frames=0 / level-idc=41 / high-tier=1 / uhd-bd=0 / ref=4 / allow-non-conformance / no-repeat-headers / annexb / no-aud / no-hrd / info / hash=0 / no-temporal-layers / open-gop / min-keyint=24 / keyint=240 / gop-lookahead=0 / bframes=9 / b-adapt=2 / b-pyramid / bframe-bias=0 / rc-lookahead=40 / lookahead-slices=6 / scenecut=40 / radl=0 / no-splice / no-intra-refresh / ctu=32 / min-cu-size=8 / no-rect / no-amp / max-tu-size=32 / tu-inter-depth=4 / tu-intra-depth=4 / limit-tu=1 / rdoq-level=1 / dynamic-rd=0.00 / no-ssim-rd / signhide / no-tskip / nr-intra=0 / nr-inter=0 / no-constrained-intra / no-strong-intra-smoothing / max-merge=5 / limit-refs=1 / no-limit-modes / me=3 / subme=7 / merange=57 / temporal-mvp / no-hme / weightp / no-weightb / no-analyze-src-pics / deblock=-3:-3 / no-sao / no-sao-non-deblock / rd=3 / early-skip / no-rskip / no-fast-intra / no-tskip-fast / no-cu-lossless / b-intra / no-splitrd-skip / rdpenalty=0 / psy-rd=2.00 / psy-rdoq=1.00 / no-rd-refine / no-lossless / cbqpoffs=0 / crqpoffs=0 / rc=crf / crf=20.0 / qcomp=0.60 / qpstep=4 / stats-write=0 / stats-read=0 / vbv-maxrate=50000 / vbv-bufsize=50000 / vbv-init=0.9 / crf-max=0.0 / crf-min=0.0 / ipratio=1.40 / pbratio=1.30 / aq-mode=3 / aq-strength=1.00 / no-cutree / zone-count=0 / no-strict-cbr / qg-size=32 / no-rc-grain / qpmax=69 / qpmin=0 / no-const-vbv / sar=1 / overscan=0 / videoformat=5 / range=0 / colorprim=2 / transfer=2 / colormatrix=2 / chromaloc=0 / display-window=0cll=0,0 / min-luma=0 / max-luma=1023 / log2-max-poc-lsb=8 / vui-timing-info / vui-hrd-info / slices=1 / no-opt-qp-pps / no-opt-ref-list-length-pps / no-multi-pass-opt-rps / scenecut-bias=0.05 / no-opt-cu-delta-qp / no-aq-motion / no-hdr / no-hdr-opt / no-dhdr10-opt / no-idr-recovery-sei / analysis-reuse-level=5 / scale-factor=0 / refine-intra=0 / refine-inter=0 / refine-mv=0 / refine-ctu-distortion=0 / no-limit-sao / ctu-info=0 / no-lowpass-dct / refine-analysis-type=0 / copy-pic=1 / max-ausize-factor=1.0 / no-dynamic-refine / no-single-sei / no-hevc-aq / no-svt / no-field / qp-adaptation-range=1.00
Language                                 : English
Default                                  : Yes
Forced                                   : No
Color range                              : Limited

Audio #1
ID                                       : 2
Format                                   : AC-3
Format/Info                              : Audio Coding 3
Commercial name                          : Dolby Digital
Codec ID                                 : A_AC3
Duration                                 : 2 h 27 min
Bit rate mode                            : Constant
Bit rate                                 : 384 kb/s
Channel(s)                               : 6 channels
Channel layout                           : L R C LFE Ls Rs
Sampling rate                            : 48.0 kHz
Frame rate                               : 31.250 FPS (1536 SPF)
Bit depth                                : 16 bits
Compression mode                         : Lossy
Stream size                              : 404 MiB (4%)
Title                                    : / 5.1 Ch / 384 kbps / ПД / iTunes
Language                                 : Ukrainian
Service kind                             : Complete Main
Default                                  : Yes
Forced                                   : Yes

Audio #2
ID                                       : 3
Format                                   :
Format/Info                              : Digital Theater Systems
Codec ID                                 : A_DTS
Duration                                 : 2 h 27 min
Bit rate mode                            : Constant
Bit rate                                 : 1 509 kb/s
Channel(s)                               : 6 channels
Channel layout                           : C L R Ls Rs LFE
Sampling rate                            : 48.0 kHz
Frame rate                               : 93.750 FPS (512 SPF)
Bit depth                                : 24 bits
Compression mode                         : Lossy
Stream size                              : 1.55 GiB (16%)
Title                                    : / 5.1 Ch / 1509 kbps / Original
Language                                 : English
Default                                  : No
Forced                                   : No

Text #1
ID                                       : 4
Format                                   : UTF-8
Codec ID                                 : S_TEXT/UTF8
Codec ID/Info                            : UTF-8 Plain Text
Duration                                 : 2 h 11 min
Bit rate                                 : 40 b/s
Count of elements                        : 1136
Stream size                              : 38.9 KiB (0%)
Title                                    : Full
Language                                 : English
Default                                  : No
Forced                                   : No

Text #2
ID                                       : 5
Format                                   : UTF-8
Codec ID                                 : S_TEXT/UTF8
Codec ID/Info                            : UTF-8 Plain Text
Duration                                 : 2 h 25 min
Bit rate                                 : 44 b/s
Count of elements                        : 1444
Stream size                              : 47.4 KiB (0%)
Title                                    : SDH
Language                                 : English
Default                                  : No
Forced                                   : No

Menu
00:00:00.000                             : en:Chapter 1
00:12:34.712                             : en:Chapter 2
00:18:06.877                             : en:Chapter 3
00:25:15.222                             : en:Chapter 4
00:33:35.722                             : en:Chapter 5
00:40:56.954                             : en:Chapter 6
00:49:23.668                             : en:Chapter 7
00:57:14.764                             : en:Chapter 8
01:05:52.740                             : en:Chapter 9
01:12:59.082                             : en:Chapter 10
01:20:37.040                             : en:Chapter 11
01:33:58.591                             : en:Chapter 12
01:41:34.171                             : en:Chapter 13
01:53:50.365                             : en:Chapter 14
02:02:22.960                             : en:Chapter 15
02:14:07.038                             : en:Chapter 16
Світлини




Джерело: &
Особиста оцінка: 0 - не дивився


Золотий реліз (завантажене не впливає на рейтинг)
 Трекер:    Зареєстрований   

Завантажити / скачати фільм українською



відео для новачків



 Зареєстрований:   2019-11-02 17:00
 Розмір:   9.86 GB 
 Оцінка фільму:   7/10 (Голосів: 11)
   
Інші релізи
   Сонцестояння / Midsommar (2019) 1080p Ukr/Eng | Sub Eng staf777  7 / 0   12.86 GB   2019-11-03 10:16 
   Сонцестояння / Midsommar (2019) Remux 1080p Ukr/Eng | Sub Eng antik_2008  9 / 0   37.2 GB   2019-11-02 21:14 
   Сонцестояння / Midsommar (2019) antik_2008  21 / 0   2.15 GB   2019-11-02 20:33 
   Сонцестояння / Midsommar (2019) 720p Ukr/Eng | Sub Eng 11FrYkT  14 / 0   6.41 GB   2019-11-02 08:41 
   Сонцестояння / Midsommar (2019) AVC Ukr/Eng | Sub Eng 11FrYkT  23 / 0   2.8 GB   2019-11-02 08:29 
Anonymous 







2019-11-02 17:00  
Якісніша укр. доріжка.
Ваш часовий пояс: GMT + 2 Години

Нова тема   Відповісти