Тремтіння землі 3: Повернення в Перфекшн / Tremors 3: Back to Perfection (2001) Remux 1080p 2хUkr/Eng | Sub Eng

Нові коментарі

Нова тема   Відповісти
Автор Повідомлення
MakRA 
VIP


З нами з: 11.11.18
Востаннє: 22.09.20
Повідомлень: 1119

2019-10-16 00:38  
Тремтіння землі 3: Повернення в Перфекшн / Tremors 3: Back to Perfection (2001) Remux 1080p 2хUkr/Eng | Sub Eng


Український постер:

Жанр: комедія, жахи, екшн
Країна: США



Кінокомпанія: Universal Family and Home Entertainment, Stampede Entertainment
Режисер: Брент Меддок [Brent Maddock]
Актори: Майкл Ґросс [Michael Gross], Шон Крістіан [Shawn Christian], Сюзан Чанґ [Susan Chuang], Шарлотта Стюарт [Charlotte Stewart], Едріана Річардс [Ariana Richards], Тоні Ґенаро [Tony Genaro]

Сюжет:
На шляху ненажерливих монстрів з’являється знайоме нам містечко під скромною назвою «Перфекшн». Але визнаний фахівець із виживання, а також професійний винищувач страшних хижаків, Берт Гаммер, встиг обзавестися величезним арсеналом усілякої стрілецької зброї, різної вибухівки і готовий до бою на всі сто.
Правда він ще не знає, що підземні хробаки теж підготувалися до зустрічі з людьми...


Тривалість: 01:43:36
Якість: Remux 1080p
Відео:
кодек:
розмір кадру: 1920 х 1080
бітрейт: 29,7 Mб/с

Аудіо # 1:
мова: українська
переклад: багатоголосий закадровий | Переклад і озвучення виконано студією: «ТакТребаПродакшн» на замовлення телекомпанії «ТРК Україна».
кодек: 2.0
бітрейт: 192 кб/с
назву перекладено як: "Дрож землі 3: Назад до Досконалості"

Аудіо # 2:
мова: українська
переклад: двоголосий закадровий | Переклад і озвучення виконано студією: «ТВ+» на замовлення телекомпанії «ICTV»
кодек: 2.0
бітрейт: 192 кб/с
назву перекладено як: "Тремтіння землі 3: Повернення в Перфекшн"

Аудіо # 3:
мова: англійська
переклад: оригінал
кодек: -HD MA 5.1
бітрейт: 4211 кб/с

Субтитри: (SDH)
мова: англійська
тип: пререндерні
формат: *.pgs
Info
General
Unique ID : 57593207483125523016157258088337671656 (0x2B540C5CA2B1632E39E2CFF3498C85E8)
Complete name : N:\+ Фільми в HD\Жахи, комедії\Tremors. Collection Remux 1080p\Tremors 3 Back to Perfection (2001) Remux 1080p 2хUkrEng Sub Eng [Hurtom].
Format :
Format version : Version 4
File size : 24.8 GiB
Duration : 1 h 43 min
Overall bit rate mode : Variable
Overall bit rate : 34.3 Mb/s
Movie name : Тремтіння землі 3: Повернення в Перфекшн / Tremors 3: Back to Perfection (2001) Remux 1080p 2хUkr/Eng | Sub Eng [Hurtom]
Encoded date : UTC 2019-10-15 08:03:25
Writing application : v25.0.0 ('Prog Noir') 64-bit
Writing library : libebml v1.3.6 + v1.4.9
Cover : Yes
Attachments : cover.jpg

Video
ID : 1
Format : AVC
Format/Info : Advanced Video Codec
Format profile : [email protected]
Format settings : CABAC / 4 Ref Frames
Format settings, CABAC : Yes
Format settings, Reference fra : 4 frames
Format settings, GOP : M=3, N=12
Codec ID : V_MPEG4/ISO/AVC
Duration : 1 h 43 min
Bit rate mode : Variable
Bit rate : 29.7 Mb/s
Maximum bit rate : 33.0 Mb/s
Width : 1 920 pixels
Height : 1 080 pixels
Display aspect ratio : 16:9
Frame rate mode : Constant
Frame rate : 23.976 (24000/1001) FPS
Color space : YUV
Chroma subsampling : 4:2:0
Bit depth : 8 bits
Scan type : Progressive
Bits/(Pixel*Frame) : 0.597
Stream size : 21.5 GiB (87%)
Title : Tremors 3: Back to Perfection (2001) Remux 1080p 2хUkr/Eng | Sub Eng [Hurtom]
Language : Ukrainian
Default : Yes
Forced : Yes

Audio #1
ID : 2
Format : AC-3
Format/Info : Audio Coding 3
Commercial name : Dolby Digital
Codec ID : A_AC3
Duration : 1 h 43 min
Bit rate mode : Constant
Bit rate : 192 kb/s
Channel(s) : 2 channels
Channel layout : L R
Sampling rate : 48.0 kHz
Frame rate : 31.250 FPS (1536 SPF)
Bit depth : 16 bits
Compression mode : Lossy
Stream size : 142 MiB (1%)
Title : MVO [УКРАЇНА] 2.0
Language : Ukrainian
Service kind : Complete Main
Default : Yes
Forced : Yes

Audio #2
ID : 3
Format : AC-3
Format/Info : Audio Coding 3
Commercial name : Dolby Digital
Codec ID : A_AC3
Duration : 1 h 43 min
Bit rate mode : Constant
Bit rate : 192 kb/s
Channel(s) : 2 channels
Channel layout : L R
Sampling rate : 48.0 kHz
Frame rate : 31.250 FPS (1536 SPF)
Bit depth : 16 bits
Compression mode : Lossy
Stream size : 142 MiB (1%)
Title : DVO [ICTV] 2.0
Language : Ukrainian
Service kind : Complete Main
Default : No
Forced : No

Audio #3
ID : 4
Format : XLL
Format/Info : Digital Theater Systems
Commercial name : -HD Master Audio
Codec ID : A_DTS
Duration : 1 h 43 min
Bit rate mode : Variable
Bit rate : 4 211 kb/s
Channel(s) : 6 channels
Channel layout : C L R Ls Rs LFE
Sampling rate : 48.0 kHz
Frame rate : 93.750 FPS (512 SPF)
Bit depth : 24 bits
Compression mode : Lossless
Stream size : 3.05 GiB (12%)
Title : Original -HD MA 5.1
Language : English
Default : No
Forced : No

Text
ID : 5
Format : PGS
Muxing mode : zlib
Codec ID : S_HDMV/PGS
Codec ID/Info : Picture based subtitle format used on BDs/HD-DVDs
Duration : 1 h 38 min
Bit rate : 42.0 kb/s
Count of elements : 2894
Stream size : 29.5 MiB (0%)
Title : Eng (SDH)
Language : English
Default : No
Forced : No
Скріншоти
Джерело: &
Подяка п. slavik_v_z,п. Neytreenor за запис звуку, та п. krigg070 за синхронізацію.
Особиста оцінка: 10 - без зайвих вагань рекомендую всім!


Золотий реліз (завантажене не впливає на рейтинг)
 Трекер:    Зареєстрований   

Завантажити / скачати фільм українською



відео для новачків



 Зареєстрований:   2019-10-16 00:38
 Розмір:   24.82 GB 
 Оцінка фільму:   8.7/10 (Голосів: 7)
   
Ваш часовий пояс: GMT + 2 Години

Нова тема   Відповісти