База "Клейтон" / Basic (2003) AVC 2xUkr/Eng | Sub Eng

Нові коментарі

Нова тема   Відповісти
Автор Повідомлення
Arsenfpu 
Відео Гуртом - фільмокрай
Відео Гуртом - фільмокрай


З нами з: 30.04.09
Востаннє: 18.11.19
Повідомлень: 6235

2019-10-15 21:20  
База "Клейтон" / Basic (2003) AVC 2xUkr/Eng | Sub Eng

База "Клейтон" / Basic (2003) AVC 2xUkr/Eng | Sub Eng


Жанр: трилер, драма, кримінал, детектив
Країна: США, Німеччина



Кінокомпанія: Phoenix Pictures, Intermedia Films
Режисер: Джон МакТірнан
Актори: Джон Траволта, Конні Нільсен, Семюел Л. Джексон, Тім Дейлі, Джованні Рібізі, Брайан Ван Холт, Тей Діггз

Сюжет:
База "Клейтон" - остання американська військова база на Панамському каналі. Під час секретної тренувальної місії ураган наздоганяє в джунглях групу спецназівців та їхнього легендарного інструктора Нейтона Веста. П'ятеро з них пропадають без звістки, і тільки двоє повертаються на базу. Їхні показання капітанові військової поліції бази "Клейтон" Джулії Озборн суперечливі й заплутані. Для розслідування обставин містичного зникнення елітного загону задіяний колишній агент відділу по боротьбі з наркотиками Харді. Капітан Озборн насторожено ставиться до Харді, підозрюваному в хабарництві з боку місцевих наркодільців. Ситуація ускладнюється також тим фактом, що Харді - колишній учень Веста й ненавидить його не менше, ніж нинішні рекрути...Всі брешуть.


Тривалість: 01:38:10
Якість:
Відео:
кодек:
розмір кадру: 1 024 х 432
бітрейт: 2 499 кб/с

Аудіо # 1:
мова: українська
переклад: багатоголосий закадровий
кодек: 2.0
бітрейт: 192 кб/с

Аудіо # 2:
мова: українська
переклад: багатоголосий закадровий (з 5.1)
кодек: 2.0
бітрейт: 192 кб/с

Аудіо # 3:
мова: англійська
переклад: оригінал
кодек: 2.0
бітрейт: 192 кб/с

Субтитри:
мова: англійська
тип: програмні (м'які)
формат: *.srt
Про файл
General
Unique ID : 157655090738423798182460517804339603139 (0x769B44197B588EBC29CC15001B3FA6C3)
Complete name : C:\Basic (2003) [2xUkr,Eng] AVC [Hurtom].
Format :
Format version : Version 4 / Version 2
File size : 2.11 GiB
Duration : 1 h 38 min
Overall bit rate : 3 076 kb/s
Movie name : База «Клейтон» / Basic (2003)
Encoded date : UTC 2019-10-15 18:48:54
Writing application : v21.0.0 ('Tardigrades Will Inherit The Earth') 32-bit
Writing library : libebml v1.3.5 + v1.4.8
Cover : Yes
Attachments : cover.jpg

Video
ID : 1
Format : AVC
Format/Info : Advanced Video Codec
Format profile : [email protected]
Format settings, CABAC : Yes
Format settings, ReFrames : 4 frames
Codec ID : V_MPEG4/ISO/AVC
Duration : 1 h 38 min
Bit rate : 2 499 kb/s
Width : 1 024 pixels
Height : 432 pixels
Display aspect ratio : 2.40:1
Frame rate mode : Constant
Frame rate : 23.976 (24000/1001) FPS
Color space : YUV
Chroma subsampling : 4:2:0
Bit depth : 8 bits
Scan type : Progressive
Bits/(Pixel*Frame) : 0.236
Stream size : 1.71 GiB (81%)
Writing library : core 157 r2935 545de2f
Encoding settings : cabac=1 / ref=3 / deblock=1:-1:-1 / analyse=0x3:0x113 / me=hex / subme=7 / psy=1 / psy_rd=1.00:0.15 / mixed_ref=1 / me_range=16 / chroma_me=1 / trellis=1 / 8x8dct=1 / cqm=0 / deadzone=21,11 / fast_pskip=1 / chroma_qp_offset=-3 / threads=12 / lookahead_threads=2 / sliced_threads=0 / nr=0 / decimate=1 / interlaced=0 / bluray_compat=0 / constrained_intra=0 / bframes=3 / b_pyramid=2 / b_adapt=1 / b_bias=0 / direct=1 / weightb=1 / open_gop=0 / weightp=2 / keyint=240 / keyint_min=23 / scenecut=40 / intra_refresh=0 / rc_lookahead=40 / rc=2pass / mbtree=1 / bitrate=2499 / ratetol=1.0 / qcomp=0.60 / qpmin=0 / qpmax=69 / qpstep=4 / cplxblur=20.0 / qblur=0.5 / ip_ratio=1.40 / aq=1:1.00
Default : Yes
Forced : No

Audio #1
ID : 2
Format : AC-3
Format/Info : Audio Coding 3
Mode extension : CM (complete main)
Format settings, Endianness : Big
Codec ID : A_AC3
Duration : 1 h 38 min
Bit rate mode : Constant
Bit rate : 192 kb/s
Channel(s) : 2 channels
Channel positions : Front: L R
Sampling rate : 48.0 kHz
Frame rate : 31.250 FPS (1536 spf)
Compression mode : Lossy
Stream size : 135 MiB (6%)
Title : 2+2
Language : Ukrainian
Default : Yes
Forced : Yes

Audio #2
ID : 3
Format : AC-3
Format/Info : Audio Coding 3
Mode extension : CM (complete main)
Format settings, Endianness : Big
Codec ID : A_AC3
Duration : 1 h 38 min
Bit rate mode : Constant
Bit rate : 192 kb/s
Channel(s) : 2 channels
Channel positions : Front: L R
Sampling rate : 48.0 kHz
Frame rate : 31.250 FPS (1536 spf)
Compression mode : Lossy
Stream size : 135 MiB (6%)
Title : Новий
Language : Ukrainian
Default : No
Forced : No

Audio #3
ID : 4
Format : AC-3
Format/Info : Audio Coding 3
Mode extension : CM (complete main)
Format settings, Endianness : Big
Codec ID : A_AC3
Duration : 1 h 38 min
Bit rate mode : Constant
Bit rate : 192 kb/s
Channel(s) : 2 channels
Channel positions : Front: L R
Sampling rate : 48.0 kHz
Frame rate : 31.250 FPS (1536 spf)
Compression mode : Lossy
Stream size : 135 MiB (6%)
Language : English
Default : No
Forced : No

Text
ID : 5
Format : UTF-8
Codec ID : S_TEXT/UTF8
Codec ID/Info : UTF-8 Plain Text
Duration : 1 h 33 min
Bit rate : 75 b/s
Count of elements : 1227
Stream size : 51.2 KiB (0%)
Language : English
Default : Yes
Forced : No
Скріншоти














Джерело:
За українські доріжки дякую п. kryk-v.ya., Hulk1987, Jatx_11
За постер дякую пану hellforces
Особиста оцінка: не дивився


Срібний реліз (на рейтинг впливає 50% завантаженого)
 Трекер:    Зареєстрований   

Завантажити / скачати фільм українською



відео для новачків



 Зареєстрований:   2019-10-15 21:20
 Розмір:   2.11 GB 
 Оцінка фільму:   10/10 (Голосів: 11)
   
Інші релізи
   База "Клейтон" / Basic (2003) Remux 1080p 2xUkr/Eng | Sub Eng kryk-v.ya.  3 / 0   14.05 GB   2019-08-09 18:59 
   База "Клейтон" / Basic (2003) BDRiр 1080p Ukr/Eng | Sub Eng igor911  3 / 0   7.82 GB   2013-03-06 16:31 
   База «Клейтон» / Basic (2003) Jatx_11  3 / 0   1.69 GB   2012-11-21 23:27 
бронн 
Частий відвідувач


З нами з: 21.10.16
Востаннє: 16.11.19
Повідомлень: 36

2019-10-16 21:25  
Вже відносно старий фільм. Але надзвичайно цікавий. Дивився кількв разів.
Заплутана і цікава детективна історія

Ваш часовий пояс: GMT + 2 Години

Нова тема   Відповісти