Комендантська година (Сезон 1) / Curfew (Season 1) (2019) 720p Ukr/Eng | Sub Ukr

Нові коментарі

Нова тема   Відповісти
Варто продовжувати?

Так
75%
 75%  [ 12 ]
Ні
0%
 0%  [ 0 ]
Байдуже
25%
 25%  [ 4 ]
Проголосувало користувачів: 16
Всього віддано голосів: 16
Голосування завершено

Автор Повідомлення
Anaive 
VIP


З нами з: 07.06.11
Востаннє: 02.12.20
Повідомлень: 321

2019-10-15 20:30  
Комендантська година (Сезон 1) / Curfew (Season 1) (2019) 720p Ukr/Eng | Sub Ukr

Комендантська година (Сезон 1) / Curfew (Season 1) (2019) 720p Ukr/Eng | Sub Ukr


Жанр: екшн, кримінальний, драма, трилер
Країна: Велика Британія



Кінокомпанія / телеканал: Sky One
Режисер: Вілл Гулд
Актори/ролі озвучують: Адам Броуді, Біллі Зейн, Шон Бін, Джейсон Торп, Фібі Фокс

Сюжет:
Комендантська година - це британський драматичний серіал телеканалу Sky One, прем'єра якого відбулася 22 лютого 2019 року на тому ж самому телеканалі Sky One у Великобританії та Ірландії. Серіал розповідає про не далеке майбутнє, де тоталітарний уряд Великобританії запровадив комендантську годину для захисту населення. Основні події обертаються навколо групки гонщиків-аматорів з усіх куточків світу, які змагаються в незаконних, нічних, вуличних, гонках з певних причин, тим самим порушуючи комендантську годину.


Тривалість: 1 серія: 00:46:17 ( цілком серій: 8)
Перелік серій

Трейлер
Серія 01
Серія 02
Серія 03
Серія 04
Серія 05
Серія 06
Серія 07
Серія 08
Якість: 720p
Відео:
кодек:
розмір кадру: 1280 х 534
бітрейт: ~ 1687 кб/с

Аудіо # 1:
мова: українська
переклад: одноголосий закадровий
кодек: 2.0
бітрейт: 320 кб/с

Аудіо # 2:
мова: англійська
переклад: оригінал
кодек: E- 5.1
бітрейт: 384 кб/с

Джерело озвучення:
| Енейв

Субтитри:
мова: українська
тип: програмні (м'які)
формат: *.srt
переклад: [SubAutumn]
ТРЕЙЛЕР
Info

General
Unique ID : 132536607488527084950213075055867433694 (0x63B59F42887C076B64491325101192DE)
Complete name : E:\Video\Curfew (Season 1) ukr\[AnaivE] Комендантська година - 1 [720p].
Format :
Format version : Version 4
File size : 793 MiB
Duration : 46 min 18 s
Overall bit rate : 2 393 kb/s
Encoded date : UTC 2019-10-15 18:03:25
Writing application : v29.0.0 ('Like It Or Not') 64-bit
Writing library : libebml v1.3.6 + v1.4.9

Video
ID : 1
Format : AVC
Format/Info : Advanced Video Codec
Format profile : [email protected]
Format settings : CABAC / 5 Ref Frames
Format settings, CABAC : Yes
Format settings, Reference : 5 frames
Codec ID : V_MPEG4/ISO/AVC
Duration : 46 min 17 s
Bit rate : 1 687 kb/s
Width : 1 280 pixels
Height : 534 pixels
Display aspect ratio : 2.40:1
Frame rate mode : Constant
Frame rate : 25.000 FPS
Color space : YUV
Chroma subsampling : 4:2:0
Bit depth : 8 bits
Scan type : Progressive
Bits/(Pixel*Frame) : 0.099
Stream size : 559 MiB (70%)
Writing library : core 157 r2935 545de2f
Encoding settings : cabac=1 / ref=5 / deblock=1:0:0 / analyse=0x3:0x113 / me=hex / subme=8 / psy=1 / psy_rd=1.00:0.00 / mixed_ref=1 / me_range=16 / chroma_me=1 / trellis=2 / 8x8dct=1 / cqm=0 / deadzone=21,11 / fast_pskip=1 / chroma_qp_offset=-2 / threads=12 / lookahead_threads=2 / sliced_threads=0 / nr=0 / decimate=1 / interlaced=0 / bluray_compat=0 / constrained_intra=0 / bframes=3 / b_pyramid=2 / b_adapt=1 / b_bias=0 / direct=3 / weightb=1 / open_gop=0 / weightp=2 / keyint=250 / keyint_min=25 / scenecut=40 / intra_refresh=0 / rc_lookahead=50 / rc=crf / mbtree=1 / crf=18.0 / qcomp=0.60 / qpmin=0 / qpmax=69 / qpstep=4 / ip_ratio=1.40 / aq=1:1.00
Language : English
Default : Yes
Forced : Yes

Audio #1
ID : 2
Format : LC
Format/Info : Advanced Audio Codec Low Complexity
Codec ID : A_AAC-2
Duration : 46 min 18 s
Bit rate : 320 kb/s
Channel(s) : 2 channels
Channel layout : L R
Sampling rate : 48.0 kHz
Frame rate : 46.875 FPS (1024 SPF)
Compression mode : Lossy
Stream size : 106 MiB (13%)
Language : Ukrainian
Default : Yes
Forced : No

Audio #2
ID : 3
Format : AC-3
Format/Info : Audio Coding 3
Commercial name : Dolby Digital
Codec ID : A_AC3
Duration : 46 min 17 s
Bit rate mode : Constant
Bit rate : 384 kb/s
Channel(s) : 6 channels
Channel layout : L R C LFE Ls Rs
Sampling rate : 48.0 kHz
Frame rate : 31.250 FPS (1536 SPF)
Bit depth : 16 bits
Compression mode : Lossy
Stream size : 127 MiB (16%)
Language : English
Service kind : Complete Main
Default : No
Forced : No

Text
ID : 4
Format : UTF-8
Codec ID : S_TEXT/UTF8
Codec ID/Info : UTF-8 Plain Text
Duration : 44 min 43 s
Bit rate : 75 b/s
Count of elements : 583
Stream size : 24.8 KiB (0%)
Language : Ukrainian
Default : No
Forced : No
Скріншоти


Особиста оцінка: 6 - під кінець серіалу кінець... Шкода.


Авторський реліз (завантажувати можна без реєстрації)
 Трекер:    Зареєстрований   

Завантажити / скачати серіал українською



відео для новачків



 Зареєстрований:   2020-01-26 15:47
 Розмір:   5.9 GB 
 Оцінка серіалу:   9.7/10 (Голосів: 14)
   
Anaive 
VIP


З нами з: 07.06.11
Востаннє: 02.12.20
Повідомлень: 321

2019-10-15 20:52  
Бог його знає що я зробив не так
Але то на розсуд модера
Не знаю чому немає мене в сідерах Happy

don pedro 
Попереджень: 1
Попереджень: 1 


З нами з: 29.06.11
Востаннє: 02.12.20
Повідомлень: 18222

2019-10-18 18:49  
Гарне озвучення. Дякую. Чекаю продовження.
Серіал непоганий. А що ото за чудовисько, я так і не допетрав - мабуть, прослухав.

Anaive 
VIP


З нами з: 07.06.11
Востаннє: 02.12.20
Повідомлень: 321

2019-10-20 14:43  
2 серія від "НемаСлухуПродакшн"
І я змінив найменування файлів, бі керфул, гайс/гйолс.

don pedro 
Попереджень: 1
Попереджень: 1 


З нами з: 29.06.11
Востаннє: 02.12.20
Повідомлень: 18222

2019-10-20 14:50  
Anaive
Змініть заголовок. Є дві серії.

Anaive 
VIP


З нами з: 07.06.11
Востаннє: 02.12.20
Повідомлень: 321

2019-11-05 23:12  
3 серія. Їхаєм повільно, але їхаєм.

Додано через 5 хвилин 41 секунду:

Враховуючи "популярність", результат опитування, серії будуть виходити за принципом "а сьогодні настрій є, їхаєм" Happy

Додано через 19 хвилин 48 секунд:
СПОЙЛЕР
Як відкис Шон Бін нема бажання продовжувати. Він класно зіграв роль відбитаого на всю голову. Серія 3 вийшла досить крутою. Тому якщо 4а не збавить обороти (хоч Шон і відкис)... То певно продовжу
Додано через 56 хвилин 57 секунд:

Краще пізно...
ТРЕЙЛЕР

Anaive 
VIP


З нами з: 07.06.11
Востаннє: 02.12.20
Повідомлень: 321

2019-11-17 17:38  
4 серія.
Як же "вони" багато триндять у 4ій серії...

Bitcoin 
Частий відвідувач


З нами з: 13.01.19
Востаннє: 08.11.20
Повідомлень: 31

2019-11-24 08:12  
Вогонь!
Завзята 
Свій


З нами з: 10.12.15
Востаннє: 30.11.20
Повідомлень: 79

2019-12-04 18:26  
Спочатку не сподобався. Гонки, біганина, стрілянина, смикання, перестрибування.... Потім з'явилась якась ідея, діалоги, роздуми, серіальчик став цікавим. Озвучка чудова, дякую! З нетерпінням чекаю продовження
Anaive 
VIP


З нами з: 07.06.11
Востаннє: 02.12.20
Повідомлень: 321

2019-12-14 23:27  
Буде наступного тижня. Правда я втратив інтерес до самого серіалу. Але щоб не було дропа - завершу.
bot 
робот


З нами з: 30.09.07
Востаннє: 26.05.05
Повідомлень: 26428

2019-12-15 15:28  
Тему перенесено з Телесеріали до форуму Серіали в HD


Dark Invader

Anaive 
VIP


З нами з: 07.06.11
Востаннє: 02.12.20
Повідомлень: 321

2019-12-18 00:10  
Я вже й сам не очікував що вони приїдуть в 5-ій серії...

Додано через 14 хвилин 58 секунд:

П.
П означає популярний серіал )))
І все інше, що починається на П, в т.ч. п*ята серія)

Anaive 
VIP


З нами з: 07.06.11
Востаннє: 02.12.20
Повідомлень: 321

2020-01-09 23:31  
6, 7 серії. Маю надію, що завтра повернуся вчасно додому (з роботи) і озвучу 8 серію. Серіал "злився", перших 3 серії були круті, далі якась маячня.

Додано через 1 хвилину 41 секунду:

Просто щоб не було дропу - завершую, задоволення взагалі не приносить, на-відмінно від тих серіалів/фільмів, що я озвучував раніше.

Anaive 
VIP


З нами з: 07.06.11
Востаннє: 02.12.20
Повідомлень: 321

2020-01-26 15:49  
8 серія. Кінець.
Почуємось в заключному сезоні Війн клонів - https://toloka.to/t107475.

Весна^) 
Новенький


З нами з: 25.02.13
Востаннє: 21.11.20
Повідомлень: 3

2020-03-13 17:07  
нажаль чомусь не йде занрузкаSad (1)((
RemH7 
Частий відвідувач


З нами з: 15.08.11
Востаннє: 02.12.20
Повідомлень: 27

2020-09-28 13:09  
Anaive

Виправте imdb.

Ваш часовий пояс: GMT + 2 Години

Нова тема   Відповісти