Телетато у відставці (Сезон 3, Серії 14-20) / See Dad Run (Season 3, Episodes 14-20) (2014) 720p Ukr/Eng

Нові коментарі

Нова тема   Відповісти
Останній раз роздавалося Neytreenor (2020-11-27)
Автор Повідомлення
Anonymous 







2019-10-14 20:11  
Телетато у відставці (Сезон 3, Серії 14-20) / See Dad Run (Season 3, Episodes 14-20) (2014) 720p Ukr/Eng

Телетато у відставці (Сезон 3, Серії 14-20) / See Dad Run (Season 3, Episodes 14-20) (2014) 720p Ukr/Eng


Жанр: комедія, драма, сімейний
Країна: США



Кінокомпанія: Katlin-Bernstein Productions, Bischoff/Hervey Entertainment, Nickelodeon Productions
Режисер: Тіна Албанезе (Tina Albanese), Патрік Лебйорто (Patrick Labyorteaux)
Актори: Скотт Байо (Scott Baio), Раян Ньюман (Ryan Newman), Джексон Брандеж (Jackson Brundage), Аланна Убах (Alanna Ubach), Бейлі Мітчел Браун (Bailey Michelle Brown) та інші

Сюжет:
Весела і симпатична комедійна історія для дітей та їхніх батьків. Розповідь про татуся, який звик бути зіркою телешоу, але змушений завершити кар’єру і доглядати дітей і будинок. На екрані він грав тямущого і доброго голову родини. Але тепер Девід змушений виховувати не телевізійних дітлахів, а власних, замінивши у цій непростій справі дружину, яка починає зніматися у «мильних операх». Хоббс із подивом дізнається, що хатнє господарство це не так весело, як здавалося під час зйомок.


Тривалість: 1 серія: ~20 хв. (цілком серій: 7)
Перелік серій
14) See Dad Rest His Case
15) See Dad Runner Up
16) See Dad Jump
17) See Dad's Mom with Mom's Dad
18) See Dad Overreact
19) See Dad Find His Way Home: Part 1
20) See Dad Find His Way Home: Part 2
Якість:
Відео:
кодек:
розмір кадру: 1280 x 720
бітрейт: ~4000 кб/с

Аудіо # 1:
мова: українська
переклад: багатоголосий закадровий | Paramount Comedy
кодек: 2.0
бітрейт: 192 кб/с

Аудіо # 2:
мова: англійська
переклад: оригінал
кодек: 2.0
бітрейт: 192 кб/с
Info
General
Unique ID : 224910470030236394733081239367216046493 (0xA9342E4FB5305054DF2EBB863044A19D)
Complete name : E:\Support\See Dad Run (s03e14-20) [, 720p, Ukr, Eng]\See Dad Run. s03e14. See Dad Rest His Case.
Format :
Format version : Version 4
File size : 640 MiB
Duration : 20 min 34 s
Overall bit rate mode : Variable
Overall bit rate : 4 345 kb/s
Encoded date : UTC 2019-10-13 16:24:46
Writing application : v38.0.0 ('The Silent Type') 64-bit
Writing library : libebml v1.3.9 + v1.5.2

Video
ID : 1
Format : AVC
Format/Info : Advanced Video Codec
Format profile : [email protected]
Format settings : CABAC / 3 Ref Frames
Format settings, CABAC : Yes
Format settings, Reference : 3 frames
Codec ID : V_MPEG4/ISO/AVC
Duration : 20 min 34 s
Bit rate mode : Variable
Bit rate : 3 959 kb/s
Maximum bit rate : 40.0 Mb/s
Width : 1 280 pixels
Height : 720 pixels
Display aspect ratio : 16:9
Frame rate mode : Constant
Frame rate : 25.000 FPS
Color space : YUV
Chroma subsampling : 4:2:0
Bit depth : 8 bits
Scan type : Progressive
Bits/(Pixel*Frame) : 0.172
Stream size : 583 MiB (91%)
Writing library : core 142 r2479 dd79a61
Encoding settings : cabac=1 / ref=3 / deblock=1:-1:-1 / analyse=0x3:0x113 / me=hex / subme=7 / psy=1 / psy_rd=1.00:0.15 / mixed_ref=1 / me_range=16 / chroma_me=1 / trellis=1 / 8x8dct=1 / cqm=0 / deadzone=21,11 / fast_pskip=1 / chroma_qp_offset=-3 / threads=12 / lookahead_threads=2 / sliced_threads=0 / slices=4 / nr=0 / decimate=1 / interlaced=0 / bluray_compat=0 / constrained_intra=0 / bframes=3 / b_pyramid=1 / b_adapt=1 / b_bias=0 / direct=1 / weightb=1 / open_gop=0 / weightp=2 / keyint=48 / keyint_min=4 / scenecut=40 / intra_refresh=0 / rc_lookahead=40 / rc=crf / mbtree=1 / crf=19.0 / qcomp=0.60 / qpmin=0 / qpmax=69 / qpstep=4 / vbv_maxrate=40000 / vbv_bufsize=30000 / crf_max=0.0 / nal_hrd=vbr / filler=0 / ip_ratio=1.40 / aq=1:1.00
Default : Yes
Forced : No

Audio #1
ID : 2
Format : AC-3
Format/Info : Audio Coding 3
Commercial name : Dolby Digital
Codec ID : A_AC3
Duration : 20 min 34 s
Bit rate mode : Constant
Bit rate : 192 kb/s
Channel(s) : 2 channels
Channel layout : L R
Sampling rate : 48.0 kHz
Frame rate : 31.250 FPS (1536 SPF)
Compression mode : Lossy
Stream size : 28.3 MiB (4%)
Title : Paramount Comedy
Language : Ukrainian
Service kind : Complete Main
Default : Yes
Forced : No

Audio #2
ID : 3
Format : AC-3
Format/Info : Audio Coding 3
Commercial name : Dolby Digital
Codec ID : A_AC3
Duration : 20 min 34 s
Bit rate mode : Constant
Bit rate : 192 kb/s
Channel(s) : 2 channels
Channel layout : L R
Sampling rate : 48.0 kHz
Frame rate : 31.250 FPS (1536 SPF)
Compression mode : Lossy
Stream size : 28.3 MiB (4%)
Language : English
Service kind : Complete Main
Default : No
Forced : No
Скріншоти
Джерело: &
Особиста оцінка: 0 - не дивився





Бронзовий реліз (на рейтинг впливає 75% завантаженого)
 Трекер:    Зареєстрований   

Завантажити / скачати серіал українською



відео для новачків



 Зареєстрований:   2019-10-14 20:11
 Розмір:   4.62 GB 
 Оцінка серіалу:   10/10 (Голосів: 1)
   
Gingеrbread 
Забанено
Забанено


З нами з: 01.07.19
Востаннє: 02.03.20
Повідомлень: 358

2019-10-14 21:23  
Ухти, а це звідки?
Anonymous 







2019-10-14 21:26  
Gingеrbread написано:
Ухти, а це звідки?

Записи одразу були, я їх ніде не ховав.

-_-B_Е_N_D_E_R-_- 
Забанено
Забанено


З нами з: 03.03.20
Востаннє: 29.10.20
Повідомлень: 739

2020-06-18 16:47  
Anonymous написано:
Телетато

через горизонтальну риску треба

Anonymous 







2020-06-18 16:54  
-_-B_Е_N_D_E_R-_- написано:
через горизонтальну риску треба

Які ваші докази?
На сайті каналу назва без дефісу: https://paramountcomedy.com.ua/serialy/teletato-u-vidstavci.
Правила теж кажуть, що "теле" в складних словах пишеться разом: http://litmisto.org.ua/?p=22262.

-_-B_Е_N_D_E_R-_- 
Забанено
Забанено


З нами з: 03.03.20
Востаннє: 29.10.20
Повідомлень: 739

2020-06-18 16:58  
Anonymous написано:
Які ваші докази?

Мені цей реліз не шукало
Anonymous написано:

На сайті каналу назва без дефісу: https://paramountcomedy.com.ua/serialy/teletato-u-vidstavci.
Правила теж кажуть, що "теле" в складних словах пишеться разом: http://litmisto.org.ua/?p=22262.

перейменувати попередні сезони я вже неможу

Ваш часовий пояс: GMT + 2 Години

Нова тема   Відповісти