Тамаюра OVA (Повний сезон) / Tamayura OVA (2010) 1080p Jap | sub Ukr

Нові коментарі

Нова тема   Відповісти
Автор Повідомлення
Amanogawa 
VIP


З нами з: 27.09.17
Востаннє: 10.04.20
Повідомлень: 652

2019-10-13 18:33  
Тамаюра OVA (Серії 4 з 4) / Tamayura OVA (2010) 1080p Jap | sub Ukr

Тамаюра OVA (Повний сезон) / Tamayura OVA (2010) 1080p Jap | sub Ukr


Жанр: Буденність, Подорожі
Країна: Японія
Рейтинги та оцінки:




Кінокомпанія: Hal Film Maker
Режисер: Джюнічі Сато
Сюжет:
Японці називають Тамаюрою оптичний феномен, який виникає на фотографії у вигляді кругів світла.
Головна героїня цього аніме, дівчина на ім'я Саватарі Фу переїжджає в невеличке місто у передмісті Хірошіми щоб ходити там у старшу школу, і заодно допомагати родині в сімейному бізнесі. Як і її покійний батько, вона дуже любить фотографію. Так сильно, що захоплюючись знімками, вона вже не помічає нічого ані попереду, ані позаду себе.
Дівчина мріє стати фотографом, але вона дуже сором'язлива, і якби не її подруги, вона так би і проводила увесь час, тихенько фотографуючи околиці. Саме подруги дають їй сили поступово йти до своєї мети.

Це вступ до історії на декілька сезонів, інших OVA та повнометражок.

Тривалість: в одному відео об'єднані одразу дві серії. Усього, кожне відео займає приблизно 32 хвилини.
Перелік серій:
1. Містечко з безміром любих мені речей;
2. Малесенький блакитний квиток;
3. Мені подобається гуляти разом;
4. Яким був той день.

Якість: 10-біт (можливі проблеми з відтворенням на деяких плеєрах)
Відео:
кодек: 10-біт
розмір кадру: 1920 х 1080
бітрейт: 4400 кб/с

Аудіо:
мова: японська
переклад: оригінал
кодек: 2.0
бітрейт: 227 кб/с

Субтитри:
мова: українська
тип: програмні (м'які)
формат: *.
Info
General
Unique ID : 328128408313507699037944647510945588190 (0xF6DB3B935FF146EDC8AD1711933263DE)
Format :
Format version : Version 4
File size : 1.07 GiB
Duration : 32 min 37 s
Overall bit rate : 4 676 kb/s
Encoded date : UTC 2019-10-13 11:58:18
Writing application : v30.1.0 ('Forever And More') 64-bit
Writing library : libebml v1.3.6 + v1.4.9
Attachments : ARCENA.ttf / Brianne_s_hand.ttf / ChallengeContour.ttf / CTMercuriusStd-Medium.ttf / JAPAB__.TTF

Video
ID : 1
Format : AVC
Format/Info : Advanced Video Codec
Format profile : High [email protected]
Format settings : CABAC / 9 Ref Frames
Format settings, CABAC : Yes
Format settings, Reference : 9 frames
Codec ID : V_MPEG4/ISO/AVC
Duration : 32 min 36 s
Bit rate : 4 399 kb/s
Width : 1 920 pixels
Height : 1 080 pixels
Display aspect ratio : 16:9
Frame rate mode : Constant
Frame rate : 23.976 (24000/1001) FPS
Color space : YUV
Chroma subsampling : 4:2:0
Bit depth : 10 bits
Scan type : Progressive
Bits/(Pixel*Frame) : 0.088
Stream size : 1.00 GiB (94%)
Title : Tamayura OVA 01 & 02
Writing library : core 129 r2245+729M 1a52e03
Encoding settings : cabac=1 / ref=9 / deblock=1:-2:-2 / analyse=0x3:0x113 / me=umh / subme=10 / psy=1 / fade_compensate=0.00 / psy_rd=0.60:0.00 / mixed_ref=1 / me_range=32 / chroma_me=1 / trellis=2 / 8x8dct=1 / cqm=0 / deadzone=21,11 / fast_pskip=0 / chroma_qp_offset=-2 / threads=9 / lookahead_threads=2 / sliced_threads=0 / nr=0 / decimate=0 / interlaced=0 / bluray_compat=0 / constrained_intra=0 / fgo=0 / bframes=12 / b_pyramid=2 / b_adapt=2 / b_bias=0 / direct=1 / weightb=1 / open_gop=0 / weightp=2 / keyint=250 / keyint_min=23 / scenecut=40 / intra_refresh=0 / rc=crf / mbtree=0 / crf=15.5 / qcomp=0.70 / qpmin=0 / qpmax=38 / qpstep=4 / ip_ratio=1.40 / pb_ratio=1.30 / aq=3:0.85
Language : Japanese
Default : Yes
Forced : No
Color range : Limited
Matrix coefficients : BT.709

Audio
ID : 2
Format : LC
Format/Info : Advanced Audio Codec Low Complexity
Codec ID : A_AAC-2
Duration : 32 min 37 s
Bit rate : 272 kb/s
Channel(s) : 2 channels
Channel layout : L R
Sampling rate : 48.0 kHz
Frame rate : 46.875 FPS (1024 SPF)
Compression mode : Lossy
Stream size : 63.5 MiB (6%)
Title : 2.0
Language : Japanese
Default : Yes
Forced : No

Text
ID : 3
Format :
Codec ID : S_TEXT/
Codec ID/Info : Advanced Sub Station Alpha
Duration : 31 min 9 s
Bit rate : 678 b/s
Count of elements : 1587
Compression mode : Lossless
Stream size : 155 KiB (0%)
Title : Mitsuruki
Language : Ukrainian
Default : Yes
Forced : Yes
Скріншоти




Джерела: Zurako та Переклади Mitsuruki
Перекладали: Серафікус та Furunze
Особиста оцінка
Якщо ЮруКамп фокусується більше на подорожах, то тут більший фокус на буденність.
Але ті ж самі реальні локації, і хороша мальовка. Ну а ще — ЮруКамп — це про околиці Токіо, а тут в нас Хірошіма та острови японського Внутрішнього Моря


Золотий реліз (завантажене не впливає на рейтинг)
 Трекер:    Зареєстрований   

Завантажити / скачати аніме українською



відео для новачків



 Зареєстрований:   2019-10-13 18:33
 Розмір:   2.12 GB 
 Оцінка аніме:   9.5/10 (Голосів: 2)
   
kinoroman 
Свій


З нами з: 04.12.16
Востаннє: 09.04.20
Повідомлень: 131

2020-03-15 17:45  
Симпатичне аніме. Покращує настрій. Шкода, що нема озвучення. 9/10.
Дякую всім причетним до релізу.

Ваш часовий пояс: GMT + 2 Години

Нова тема   Відповісти