Байкери / Biker Boyz (2003) 1080p Ukr/Eng | Sub Eng

Нові коментарі

Нова тема   Відповісти
Останній раз роздавалося drop_plz (2020-09-25)
Автор Повідомлення
Anonymous 







2019-10-13 17:45  
Байкери / Biker Boyz (2003) 1080p Ukr/Eng | Sub Eng

Байкери / Biker Boyz (2003) 1080p Ukr/Eng | Sub Eng


Жанр: бойовик, драма
Країна: США



Кінокомпанія: Dream Works SKG
Режисер: Реггі Рок Байтвуд
Актори: Лоуренс Фішберн, Дерек Люк, Орландо Джонс, Джимон Хунсу, Ліза Бонет, Брендан Фер, Лоренц Тейт, Кід Рок, Рік Гонзалез, Миган Гуд

Сюжет:
Знятий як сучасний мото-вестерн, цей фільм розповідає про життя темношкірих байкерів. Лоуренс Фішберн грає Мануеля Гелловея, реального персонажа, президента байкерского клубу Каліфорнії й відомого гонщика, що виступає під ім'ям Король Калі. Він - лідер цивільного мотоклубу вдень, і банди диких, затягнутих у шкіру, порушників спокою вночі.


Тривалість: 01:51:04
Якість: 1080p
Відео:
кодек:
розмір кадру: 1920х1080
бітрейт: 13.4 Mб/с

Аудіо # 1:
мова: українська
переклад: двоголосий закадровий
кодек: 2.0
бітрейт: 192 кб/с

Аудіо # 2:
мова: англійська
переклад: оригінал
кодек: A_EAC3 5.1
бітрейт: 640 кб/с

Субтитри:
мова: англійська
тип: програмні (м'які)
формат: *.srt
Info
General
Unique ID : 210058677537866401016256795890660707233 (0x9E07D468315B3EAAB38374293B7C8BA1)
Complete name : H:\Toloka\2019\Biker Boyz (2003) 1080p.
Format :
Format version : Version 4
File size : 11.2 GiB
Duration : 1 h 51 min
Overall bit rate mode : Variable
Overall bit rate : 14.5 Mb/s
Encoded date : UTC 2019-10-13 14:38:45
Writing application : v6.1.0 ('Old Devil') built on Mar 4 2013 09:10:42
Writing library : libebml v1.3.0 + v1.4.0

Video
ID : 1
Format : AVC
Format/Info : Advanced Video Codec
Format profile : [email protected]
Format settings : CABAC / 4 Ref Frames
Format settings, CABAC : Yes
Format settings, RefFrames : 4 frames
Codec ID : V_MPEG4/ISO/AVC
Duration : 1 h 51 min
Bit rate mode : Variable
Bit rate : 13.4 Mb/s
Maximum bit rate : 15.0 Mb/s
Width : 1 920 pixels
Height : 1 080 pixels
Display aspect ratio : 16:9
Frame rate mode : Constant
Frame rate : 23.976 (24000/1001) FPS
Color space : YUV
Chroma subsampling : 4:2:0
Bit depth : 8 bits
Scan type : Progressive
Bits/(Pixel*Frame) : 0.269
Stream size : 10.4 GiB (92%)
Default : Yes
Forced : No
Color range : Limited
Color primaries : BT.709
Transfer characteristics : BT.709
Matrix coefficients : BT.709
Statistics Tags Issue : v12.0.0 ('Trust / Lust') 64bit 2017-07-06 18:00:28 / v6.1.0 ('Old Devil') built on Mar 4 2013 09:10:42 2019-10-13 14:38:45
FromStats_BitRate : 13665845
FromStats_Duration : 01:51:03.699000000
FromStats_FrameCount : 159769
FromStats_StreamSize : 11383134746

Audio #1
ID : 2
Format : AC-3
Format/Info : Audio Coding 3
Commercial name : Dolby Digital
Codec ID : A_AC3
Duration : 1 h 51 min
Bit rate mode : Constant
Bit rate : 192 kb/s
Channel(s) : 2 channels
Channel layout : L R
Sampling rate : 48.0 kHz
Frame rate : 31.250 FPS (1536 SPF)
Bit depth : 16 bits
Compression mode : Lossy
Stream size : 153 MiB (1%)
Title : UKR (ICTV)
Language : Ukrainian
Service kind : Complete Main
Default : Yes
Forced : Yes

Audio #2
ID : 3
Format : E-AC-3
Format/Info : Enhanced AC-3
Commercial name : Dolby Digital Plus
Codec ID : A_EAC3
Duration : 1 h 51 min
Bit rate mode : Constant
Bit rate : 640 kb/s
Channel(s) : 6 channels
Channel layout : L R C LFE Ls Rs
Sampling rate : 48.0 kHz
Frame rate : 31.250 FPS (1536 SPF)
Compression mode : Lossy
Stream size : 508 MiB (4%)
Title : eng
Language : English
Service kind : Complete Main
Default : No
Forced : No
Statistics Tags Issue : v12.0.0 ('Trust / Lust') 64bit 2017-07-06 18:00:28 / v6.1.0 ('Old Devil') built on Mar 4 2013 09:10:42 2019-10-13 14:38:45
FromStats_BitRate : 640000
FromStats_Duration : 01:51:03.648000000
FromStats_FrameCount : 208239
FromStats_StreamSize : 533091840

Text
ID : 4
Format : UTF-8
Codec ID : S_TEXT/UTF8
Codec ID/Info : UTF-8 Plain Text
Title : eng
Language : English
Default : No
Forced : No
Statistics Tags Issue : v12.0.0 ('Trust / Lust') 64bit 2017-07-06 18:00:28 / v6.1.0 ('Old Devil') built on Mar 4 2013 09:10:42 2019-10-13 14:38:45
FromStats_BitRate : 52
FromStats_Duration : 01:50:22.458000000
FromStats_FrameCount : 1465
FromStats_StreamSize : 43777
Скріншоти








За українську доріжку подяка п.: MasterYura, Merdiff
Особиста подяка пану denixx за надану матеріальну допомогу на підтримку цього і майбутніх релізів.
Джерело:


Срібний реліз (на рейтинг впливає 50% завантаженого)
 Трекер:    Зареєстрований   

Завантажити / скачати фільм українською



відео для новачків



 Зареєстрований:   2019-10-13 17:45
 Розмір:   11.25 GB 
 Оцінка фільму:   9.3/10 (Голосів: 4)
   
Інші релізи
   Байкери / Biker Boyz (2003) MasterYura  2 / 0   1.78 GB   2010-01-15 20:52 
Ваш часовий пояс: GMT + 2 Години

Нова тема   Відповісти