Бокс | Олександр Усик - Чазз Візерспун | Sky Sports HD (13.10.2019) 720p 60fps Ukr/Eng

Нові коментарі

Нова тема   Відповісти
Автор Повідомлення
sergiyko.5 
VIP


З нами з: 25.02.16
Востаннє: 26.01.20
Повідомлень: 2876

2019-10-13 13:27  
Олександр Усик - Чазз Візерспун (13.10.2019) 720p


Бокс | Олександр Усик - Чазз Візерспун | Sky Sports HD (13.10.2019) 720p 60fps Ukr/Eng

Жанр: Бокс
Країна: США
Телеканал: Sky Sports HD
Коментар: український (Володимир Кобельков, Вячеслав Поночовний)

Опис: В ніч з 12 на 13 жовтня в Чикаго український боксер Олександр Усик (16–0, 12 КО) дебютував в суперважкій вазі в поєдинку проти Чазза Візерспуна (38–3, 29 КО).

Тривалість: 00:49:15
Якість:

Відео: кодек: розмір кадру: 1280 х 720 бітрейт: 8000 кб/с
Аудіо 1: мова: українська кодек: 2.0 бітрейт: 192 кб/с
Аудіо 2: мова: англійська кодек: 2.0 бітрейт: 128 кб/с
Про файл:
General
Unique ID : 95773075699482934298204302571993334892 (0x480D393312D1C875AF101E9FC684846C)
Complete name : D:\Documents\Torrents\SPORT\Boxing\Boxing.2019.10.12.Oleksandr.Usyk.vs.Chazz.Witherspoon.720p..
Format :
Format version : Version 4
File size : 2.86 GiB
Duration : 49 min 14 s
Overall bit rate : 8 307 kb/s
Encoded date : UTC 2019-10-13 11:16:16
Writing application : v36.0.0 ('Is That Jazz?') 64-bit
Writing library : libebml v1.3.9 + v1.5.2

Video
ID : 1
Format : AVC
Format/Info : Advanced Video Codec
Format profile : [email protected]
Format settings : CABAC / 4 Ref Frames
Format settings, CABAC : Yes
Format settings, Reference : 4 frames
Codec ID : V_MPEG4/ISO/AVC
Duration : 49 min 14 s
Bit rate mode : Constant
Bit rate : 8 000 kb/s
Width : 1 280 pixels
Height : 720 pixels
Display aspect ratio : 16:9
Frame rate mode : Constant
Frame rate : 59.940 (59940/1000) FPS
Original frame rate : 59.940 (60000/1001) FPS
Color space : YUV
Chroma subsampling : 4:2:0
Bit depth : 8 bits
Scan type : Progressive
Bits/(Pixel*Frame) : 0.145
Stream size : 2.75 GiB (96%)
Language : English
Default : Yes
Forced : No

Audio #1
ID : 2
Format : AC-3
Format/Info : Audio Coding 3
Commercial name : Dolby Digital
Codec ID : A_AC3
Duration : 49 min 14 s
Bit rate mode : Constant
Bit rate : 192 kb/s
Channel(s) : 2 channels
Channel layout : L R
Sampling rate : 48.0 kHz
Frame rate : 31.250 FPS (1536 SPF)
Bit depth : 16 bits
Compression mode : Lossy
Delay relative to video : -200 ms
Stream size : 67.6 MiB (2%)
Title : Інтер
Language : Ukrainian
Service kind : Complete Main
Default : Yes
Forced : Yes

Audio #2
ID : 3
Format : LC
Format/Info : Advanced Audio Codec Low Complexity
Codec ID : A_AAC-2
Duration : 49 min 14 s
Bit rate : 125 kb/s
Channel(s) : 2 channels
Channel layout : L R
Sampling rate : 48.0 kHz
Frame rate : 46.875 FPS (1024 SPF)
Compression mode : Lossy
Stream size : 44.2 MiB (2%)
Language : English
Default : No
Forced : No
Скріншоти:


Запис/зведення: sergiyko


Золотий реліз (завантажене не впливає на рейтинг)
 Трекер:    Зареєстрований   

Завантажити / скачати торрент



відео для новачків



 Зареєстрований:   2019-10-13 13:27
 Розмір:   2.86 GB 
 Оцінка:   10/10 (Голосів: 8)
   
genesis64 
Новенький


З нами з: 04.03.13
Востаннє: 26.01.20
Повідомлень: 5

2019-10-13 21:44  
Випала нагода подивитись бокс НАЖИВО. Так атмосферу не передати з екрану ТВ, як сидячи на арені. Таке враження, що з 10 тисяч присутніх процентів 90 були українцями, просто глядачі по телебаченню цього не могли повністю побачити, бо режисери трансляції не на цьому акцентували увагу. А коли ти сам присутній на арені, то бачиш довкола українські прапори, людей більшість яких обгорнутих ними, вдітих в футболки з національними символіками, всі надовкола вигукують українські "кличі", співають український гімн, все це заворажує. Ну і Усик молодець, зробив нам та й собі велике боксерське свято. Варто й американцеві вділити увагу, адже не кожен боєць погодиться на бій за 4 дні до початку, та ще й з таким профі як Сашко. Він тримався мужньо, по крайній мірі 5 раундів.
Ваш часовий пояс: GMT + 2 Години

Нова тема   Відповісти