Формула 1. Сезон 2019. Етап 17. Гран-Прі Японії. Кваліфікація (13.10.2019) 1080p Ukr/Eng

Нові коментарі

Нова тема   Відповісти
Автор Повідомлення
sergiyko.5 
Забанено
Забанено


З нами з: 25.02.16
Востаннє: 29.10.20
Повідомлень: 3651

2019-10-13 12:59  
Формула 1. Сезон 2019. Етап 17. Гран-Прі Японії. Кваліфікація (13.10.2019) 1080p Ukr/Eng


Формула 1. Сезон 2019. Етап 17. Гран-Прі Японії. Кваліфікація (13.10.2019) 1080p Ukr/Eng

Жанр: Перегони Формули 1
Країна: Японія
Телеканал: F1 TV
Коментатор: Максим Подзігун

Опис:
Кваліфікація 17 етапу Гран-Прі Японії 2019 року.


Якість:

Відео: кодек: розмір кадру: 1920 х 1080 бітрейт: 6000 кб/с
Аудіо: мова: українська кодек: 2.0 бітрейт: 192 кб/с
Аудіо: мова: англійська кодек: 2.0 бітрейт: 160 кб/с
Тривалість:
01:27:49
Про файл:
General
Unique ID : 132261995088790690491314488806318355890 (0x6380BBD2C0D76BDB846318F2A07D35B2)
Complete name : D:\Documents\Torrents\SPORT\F1.2019.17.Japan.Qualifying.1080p..Ukr.Eng.
Format :
Format version : Version 4
File size : 3.96 GiB
Duration : 1 h 27 min
Overall bit rate mode : Variable
Overall bit rate : 6 452 kb/s
Encoded date : UTC 2019-10-13 10:50:30
Writing application : v36.0.0 ('Is That Jazz?') 64-bit
Writing library : libebml v1.3.9 + v1.5.2

Video
ID : 1
Format : AVC
Format/Info : Advanced Video Codec
Format profile : [email protected]
Format settings : CABAC / 2 Ref Frames
Format settings, CABAC : Yes
Format settings, Reference : 2 frames
Format settings, GOP : M=3, N=24
Codec ID : V_MPEG4/ISO/AVC
Duration : 1 h 27 min
Bit rate mode : Variable
Bit rate : 5 999 kb/s
Maximum bit rate : 12.4 Mb/s
Width : 1 920 pixels
Height : 1 080 pixels
Original height : 1 088 pixels
Display aspect ratio : 16:9
Original display aspect rat : 16:9
Frame rate mode : Variable
Frame rate : 50.000 FPS
Color space : YUV
Chroma subsampling : 4:2:0
Bit depth : 8 bits
Scan type : Progressive
Bits/(Pixel*Frame) : 0.058
Stream size : 3.68 GiB (93%)
Language : English
Default : Yes
Forced : No

Audio #1
ID : 2
Format : AC-3
Format/Info : Audio Coding 3
Commercial name : Dolby Digital
Codec ID : A_AC3
Duration : 1 h 27 min
Bit rate mode : Constant
Bit rate : 192 kb/s
Channel(s) : 2 channels
Channel layout : L R
Sampling rate : 48.0 kHz
Frame rate : 31.250 FPS (1536 SPF)
Bit depth : 16 bits
Compression mode : Lossy
Stream size : 121 MiB (3%)
Title : Максим Подзігун
Language : Ukrainian
Service kind : Complete Main
Default : Yes
Forced : Yes

Audio #2
ID : 3
Format : LC
Format/Info : Advanced Audio Codec Low Complexity
Codec ID : A_AAC-2
Duration : 1 h 27 min
Bit rate : 256 kb/s
Channel(s) : 2 channels
Channel layout : L R
Sampling rate : 48.0 kHz
Frame rate : 46.875 FPS (1024 SPF)
Compression mode : Lossy
Stream size : 161 MiB (4%)
Language : English
Default : No
Forced : No
Примітка: до початку 5 хвилини коментар англійською мовою.

Скріншоти:


Запис/зведення: sergiyko


Золотий реліз (завантажене не впливає на рейтинг)
 Трекер:    Зареєстрований   

Завантажити / скачати торрент



відео для новачків



 Зареєстрований:   2019-10-13 12:59
 Розмір:   3.96 GB 
 Оцінка:   10/10 (Голосів: 7)
   
Ваш часовий пояс: GMT + 2 Години

Нова тема   Відповісти