Формула 1. Сезон 2019. Етап 17. Гран-Прі Японії. Гонка (13.10.2019) 1080p 2xUkr/Eng

Нові коментарі

Нова тема   Відповісти
Автор Повідомлення
sergiyko.5 
VIP


З нами з: 25.02.16
Востаннє: 28.10.20
Повідомлень: 3639

2019-10-13 11:26  
Формула 1. Сезон 2019. Етап 17. Гран-Прі Японії. Гонка (13.10.2019) 1080p 2xUkr/Eng


Формула 1. Сезон 2019. Етап 17. Гран-Прі Японії. Гонка (13.10.2019) 1080p 2xUkr/Eng

Жанр: Перегони Формули 1
Країна: Японія
Телеканал: F1TV
Коментатор: Максим Подзігун, Роман Гончаров

Опис:
Гонка 17 етапу Гран-Прі Японії 2019 року.


Якість:

Відео: кодек: розмір кадру: 1920 х 1080 бітрейт: 5500 кб/с
Аудіо 1: мова: українська кодек: 2.0 бітрейт: 192 кб/с
Аудіо 2: мова: українська кодек: 2.0 бітрейт: 192 кб/с
Аудіо 3: мова: англійська кодек: 2.0 бітрейт: 128 кб/с
Тривалість:
01:54:26
Про файл:
General
Unique ID : 139759885838349530833638099570896362430 (0x6924C660E57B2EC4CB9728E18F3F5BBE)
Complete name : D:\Documents\Torrents\SPORT\F1.2019.17.Japan.Race.1080p..Ukr.Eng.
Format :
Format version : Version 4
File size : 4.89 GiB
Duration : 1 h 56 min
Overall bit rate : 6 013 kb/s
Movie name : F1.2019.17.Japan.Race.1080p. by sergiyko
Encoded date : UTC 2019-10-13 09:15:28
Writing application : v36.0.0 ('Is That Jazz?') 64-bit
Writing library : libebml v1.3.9 + v1.5.2

Video
ID : 1
Format : AVC
Format/Info : Advanced Video Codec
Format profile : [email protected]
Format settings : CABAC / 4 Ref Frames
Format settings, CABAC : Yes
Format settings, Reference : 4 frames
Format settings, GOP : M=4, N=50
Codec ID : V_MPEG4/ISO/AVC
Duration : 1 h 56 min
Bit rate mode : Constant
Bit rate : 5 500 kb/s
Width : 1 920 pixels
Height : 1 080 pixels
Display aspect ratio : 16:9
Frame rate mode : Constant
Frame rate : 25.000 FPS
Color space : YUV
Chroma subsampling : 4:2:0
Bit depth : 8 bits
Scan type : Progressive
Bits/(Pixel*Frame) : 0.106
Stream size : 4.47 GiB (91%)
Language : English
Default : Yes
Forced : No

Audio #1
ID : 2
Format : AC-3
Format/Info : Audio Coding 3
Commercial name : Dolby Digital
Codec ID : A_AC3
Duration : 1 h 56 min
Bit rate mode : Constant
Bit rate : 192 kb/s
Channel(s) : 2 channels
Channel layout : L R
Sampling rate : 48.0 kHz
Frame rate : 31.250 FPS (1536 SPF)
Bit depth : 16 bits
Compression mode : Lossy
Delay relative to video : -23 ms
Stream size : 160 MiB (3%)
Title : Максим Подзігун
Language : Ukrainian
Service kind : Complete Main
Default : Yes
Forced : No

Audio #2
ID : 3
Format : AC-3
Format/Info : Audio Coding 3
Commercial name : Dolby Digital
Codec ID : A_AC3
Duration : 1 h 56 min
Bit rate mode : Constant
Bit rate : 192 kb/s
Channel(s) : 2 channels
Channel layout : L R
Sampling rate : 48.0 kHz
Frame rate : 31.250 FPS (1536 SPF)
Bit depth : 16 bits
Compression mode : Lossy
Delay relative to video : -23 ms
Stream size : 160 MiB (3%)
Title : Роман Гончаров
Language : Ukrainian
Service kind : Complete Main
Default : No
Forced : No

Audio #3
ID : 4
Format : LC
Format/Info : Advanced Audio Codec Low Complexity
Codec ID : A_AAC-2
Duration : 1 h 56 min
Bit rate : 129 kb/s
Channel(s) : 2 channels
Channel layout : L R
Sampling rate : 44.1 kHz
Frame rate : 43.066 FPS (1024 SPF)
Compression mode : Lossy
Delay relative to video : -23 ms
Stream size : 107 MiB (2%)
Language : English
Default : No
Forced : No
Скріншоти:


Запис/зведення: sergiyko


 Трекер:    Зареєстрований   

Завантажити / скачати торрент



відео для новачків



 Зареєстрований:   2019-10-13 11:26
 Розмір:   4.89 GB 
 Оцінка:   9.6/10 (Голосів: 20)
   
kewn 
Новенький


З нами з: 28.09.09
Востаннє: 10.04.20
Повідомлень: 4

2019-10-13 20:34  
Дуже дякую автору!!!
powst 
Новенький


З нами з: 13.10.19
Востаннє: 02.12.19
Повідомлень: 2

2019-10-13 20:40  
Дякую!
T0rN 
Новенький


З нами з: 13.12.15
Востаннє: 27.10.20
Повідомлень: 3

2019-10-14 20:11  
Дякую!!!
switchy 
Новенький


З нами з: 14.07.10
Востаннє: 29.08.20
Повідомлень: 2

2019-10-14 20:41  
Дякую тобі друже!
Ваш часовий пояс: GMT + 2 Години

Нова тема   Відповісти