Погані хлопці 2 / Bad Boys 2 (2003) Remux 1080p [Remastered] 2xUkr/Eng | Sub Eng

Нові коментарі

Нова тема   Відповісти
Автор Повідомлення
MakRA 
VIP


З нами з: 11.11.18
Востаннє: 23.10.19
Повідомлень: 445

2019-10-13 01:32  
Погані хлопці 2 / Bad Boys 2 (2003) Remux 1080p [Remastered] 2xUkr/Eng | Sub Eng


Український постер:

Жанр: екшн, комедія, кримінальний
Країна: США



Кінокомпанія: Columbia Pictures, Don Simpson/Jerry Bruckheimer Films
Режисер: Майкл Бей [Michael Bay]
Актори: Мартін Лоуренс [Martin Lawrence], Вілл Сміт [Will Smith], Габріель Юніон [Gabrielle Union], Джо Пантоліано [Joe Pantoliano], Хорді Молла [Jordi Mollà], Петер Стормаре [Peter Stormare], Тереза Рендл [Theresa Randle]

Сюжет:
Детективам з відділу наркотиків Майку Лорі і Маркусу Барнету доручене завдання провести розслідування і затримати постачальників небезпечних наркотиків в Майямі. Це приводить їх до розкриття таємної змови, ключовою персоною в якій є місцевий бос мафії. Але професійні відносини друзів виявляються під загрозою, коли у Майка з'являються певні відчуття до сестри Маркуса - Сід ...


Тривалість: 02:26:44
Якість: Remux 1080p [Remastered]
Відео:
кодек:
розмір кадру: 1920 х 1080
бітрейт: 23,9 Mб/с

Аудіо # 1:
мова: українська
переклад: професійний дубльований | "Пілот" та "ТакТребаПродакшн"
кодек: 2.0
бітрейт: 192 кб/с

Аудіо # 2:
мова: українська
переклад: багатоголосий закадровий
кодек: 2.0
бітрейт: 192 кб/с

Аудіо # 3:
мова: англійська
переклад: оригінал
кодек: -HD MA 5.1
бітрейт: 2372 кб/с

Аудіо # 4:
мова: англійська
переклад: оригінал
кодек: 5.1
бітрейт: 448 кб/с

Субтитри # 1: (Full)
мова: англійська
тип: пререндерні
формат: *.pgs

Субтитри # 2: (SDH)
мова: англійська
тип: пререндерні
формат: *.pgs

Збережено оригінальні розділи, як на Blu-ray.
Info
General
Unique ID : 139300504946540985720897431593472789033 (0x68CC4D26E0C1D58ED50061CAD6088A29)
Complete name : N:\+ Фільми в HD\Екшн, кримінал\Bad Boys. Collection Remux 1080p\Bad Boys 2 (2003) Remux 1080p [Remastered] 2xUkrEng Sub Eng [Hurtom].
Format :
Format version : Version 4
File size : 27.9 GiB
Duration : 2 h 26 min
Overall bit rate mode : Variable
Overall bit rate : 27.2 Mb/s
Movie name : Погані хлопці 2 / Bad Boys 2 (2003) Remux 1080p [Remastered] 2xUkr/Eng | Sub Eng [Hurtom]
Encoded date : UTC 2019-10-12 21:40:55
Writing application : v25.0.0 ('Prog Noir') 64-bit
Writing library : libebml v1.3.6 + v1.4.9
Cover : Yes
Attachments : cover.png

Video
ID : 1
Format : AVC
Format/Info : Advanced Video Codec
Format profile : [email protected]
Format settings : CABAC / 2 Ref Frames
Format settings, CABAC : Yes
Format settings, Reference fra : 2 frames
Codec ID : V_MPEG4/ISO/AVC
Duration : 2 h 26 min
Bit rate mode : Variable
Bit rate : 23.9 Mb/s
Width : 1 920 pixels
Height : 1 080 pixels
Display aspect ratio : 16:9
Frame rate mode : Constant
Frame rate : 23.976 (24000/1001) FPS
Color space : YUV
Chroma subsampling : 4:2:0
Bit depth : 8 bits
Scan type : Progressive
Bits/(Pixel*Frame) : 0.481
Stream size : 24.5 GiB (88%)
Title : Bad Boys 2 (2003) Remux 1080p [Remastered] 2xUkr/Eng | Sub Eng [Hurtom]
Language : Ukrainian
Default : Yes
Forced : Yes

Audio #1
ID : 2
Format : AC-3
Format/Info : Audio Coding 3
Commercial name : Dolby Digital
Codec ID : A_AC3
Duration : 2 h 26 min
Bit rate mode : Constant
Bit rate : 192 kb/s
Channel(s) : 2 channels
Channel layout : L R
Sampling rate : 48.0 kHz
Frame rate : 31.250 FPS (1536 SPF)
Bit depth : 16 bits
Compression mode : Lossy
Delay relative to video : -26 ms
Stream size : 201 MiB (1%)
Title : DUB [ІНТЕР] 2.0
Language : Ukrainian
Service kind : Complete Main
Default : Yes
Forced : Yes

Audio #2
ID : 3
Format : AC-3
Format/Info : Audio Coding 3
Commercial name : Dolby Digital
Codec ID : A_AC3
Duration : 2 h 26 min
Bit rate mode : Constant
Bit rate : 192 kb/s
Channel(s) : 2 channels
Channel layout : L R
Sampling rate : 48.0 kHz
Frame rate : 31.250 FPS (1536 SPF)
Bit depth : 16 bits
Compression mode : Lossy
Delay relative to video : -26 ms
Stream size : 201 MiB (1%)
Title : MVO [ICTV] 2.0
Language : Ukrainian
Service kind : Complete Main
Default : No
Forced : No

Audio #3
ID : 4
Format : XLL
Format/Info : Digital Theater Systems
Commercial name : -HD Master Audio
Codec ID : A_DTS
Duration : 2 h 26 min
Bit rate mode : Variable
Bit rate : 2 372 kb/s
Channel(s) : 6 channels
Channel layout : C L R Ls Rs LFE
Sampling rate : 48.0 kHz
Frame rate : 93.750 FPS (512 SPF)
Bit depth : 16 bits
Compression mode : Lossless
Stream size : 2.43 GiB (9%)
Title : Original -HD MA 5.1
Language : English
Default : No
Forced : No

Audio #4
ID : 5
Format : AC-3
Format/Info : Audio Coding 3
Commercial name : Dolby Digital
Codec ID : A_AC3
Duration : 2 h 26 min
Bit rate mode : Constant
Bit rate : 448 kb/s
Channel(s) : 6 channels
Channel layout : L R C LFE Ls Rs
Sampling rate : 48.0 kHz
Frame rate : 31.250 FPS (1536 SPF)
Bit depth : 16 bits
Compression mode : Lossy
Delay relative to video : -26 ms
Stream size : 470 MiB (2%)
Title : Original 5.1
Language : English
Service kind : Complete Main
Default : No
Forced : No

Text #1
ID : 6
Format : PGS
Muxing mode : zlib
Codec ID : S_HDMV/PGS
Codec ID/Info : Picture based subtitle format used on BDs/HD-DVDs
Duration : 2 h 20 min
Bit rate : 40.2 kb/s
Count of elements : 3824
Stream size : 40.3 MiB (0%)
Title : Eng (Full)
Language : English
Default : No
Forced : No

Text #2
ID : 7
Format : PGS
Muxing mode : zlib
Codec ID : S_HDMV/PGS
Codec ID/Info : Picture based subtitle format used on BDs/HD-DVDs
Duration : 2 h 25 min
Bit rate : 45.3 kb/s
Count of elements : 4518
Stream size : 47.0 MiB (0%)
Title : Eng (SDH)
Language : English
Default : No
Forced : No

Menu
00:00:00.000 : en:Chapter 1
00:11:04.497 : en:Chapter 2
00:21:54.396 : en:Chapter 3
00:39:54.767 : en:Chapter 4
00:45:27.683 : en:Chapter 5
00:53:27.787 : en:Chapter 6
00:59:01.246 : en:Chapter 7
01:06:26.065 : en:Chapter 8
01:11:28.617 : en:Chapter 9
01:17:53.168 : en:Chapter 10
01:30:27.130 : en:Chapter 11
01:37:38.227 : en:Chapter 12
01:45:53.764 : en:Chapter 13
01:56:46.624 : en:Chapter 14
02:05:07.583 : en:Chapter 15
02:16:06.700 : en:Chapter 16
Скріншоти
Джерело: &
Запис з ТБ та зведення: п. drakon87, п. Romario_O, п. richman, п. robotron005
Постер українською від п. thefir
Особиста оцінка: 10 - без зайвих вагань рекомендую всім!


Золотий реліз (завантажене не впливає на рейтинг)
 Трекер:    Зареєстрований   

Завантажити / скачати фільм українською



відео для новачків



 Зареєстрований:   2019-10-13 01:32
 Розмір:   27.86 GB 
 Оцінка фільму:   10/10 (Голосів: 8)
   
Інші релізи
   Погані хлопці 2 / Bad Boys 2 (2003) AVC 2xUkr/Eng | Sub Eng staf777  2 / 0   3.16 GB   2019-09-25 17:24 
   Погані хлопці 2 / Bad Boys 2 (2003) 720р Ukr/Eng kino.  0 / 0   7.83 GB   2014-06-25 16:08 
   Погані хлопці 2 / Bad Boys 2 (2003) 720p imlevchenko  0 / 1   4.25 GB   2010-04-26 19:47 
MakRA 
VIP


З нами з: 11.11.18
Востаннє: 23.10.19
Повідомлень: 445

2019-10-13 13:45  
Погані хлопці / Bad Boys (1995) Remux 1080p [Remastered] 3xUkr/Eng | Sub Eng https://toloka.to/t104747
Ваш часовий пояс: GMT + 2 Години

Нова тема   Відповісти