Брюнет вечірньою порою / Brunet wieczorową porą (1976) 1080p Ukr/Pol

Нові коментарі

Нова тема   Відповісти
Автор Повідомлення
Anonymous 







2019-10-12 23:05  
Брюнет вечірньою порою / Brunet wieczorową porą (1976) 1080p Ukr/Pol

Брюнет вечірньою порою / Brunet wieczorową porą (1976) 1080p Ukr/Pol

Back


Жанр: комедія, кримінальний, драма
Країна: Польща



Кінокомпанія: Zespół Filmowy "Pryzmat"
Режисер: Станіслав Барея
Актори: Кшиштоф Ковалевські, Войцех Покора, Вєслав Ґолас, Ришард Пьєтруські, Божена Дикєль, Мірослава Краєвська, Яніна Трачикувна, Ян Кобушевські та ін.

Сюжет:
Циганка пророкує Міхалу, що він вб'є людину. Вжахнувшись пророцтва, він намагається уникнути своєї долі.


Тривалість: 01:31:20
Якість:
Відео:
кодек:
розмір кадру: 1920 х 1080
бітрейт: 4500 кб/с

Аудіо # 1:
мова: українська
переклад: багатоголосий закадровий
кодек: 2.0
бітрейт: 192 кб/с

Аудіо # 2:
мова: польська
переклад: оригінал
кодек: 2.0
бітрейт: 384 кб/с

Джерело озвучення:

(за запис з ТБ дякуємо пану Bohdan237)
Info
General
Unique ID : 316078714047346206885944982972459311712 (0xEDCA8BC7C0711BD35A68D9C93BAEE260)
Complete name : Brunet wieczorową porą (1976) 1080p [Ukr_Pol] [Hurtom].
Format :
Format version : Version 4
File size : 3.21 GiB
Duration : 1 h 31 min
Overall bit rate : 5 034 kb/s
Movie name : Брюнет вечірньою порою (1976)
Encoded date : UTC 2019-10-12 19:02:27
Writing application : v37.0.0 ('Leave It') 32-bit
Writing library : libebml v1.3.9 + v1.5.2
Cover : Yes
Attachments : cover.jpg

Video
ID : 1
Format : AVC
Format/Info : Advanced Video Codec
Format profile : [email protected]
Format settings : CABAC / 4 Ref Frames
Format settings, CABAC : Yes
Format settings, ReFrames : 4 frames
Codec ID : V_MPEG4/ISO/AVC
Duration : 1 h 31 min
Bit rate : 4 500 kb/s
Width : 1 920 pixels
Height : 1 080 pixels
Display aspect ratio : 16:9
Frame rate mode : Constant
Frame rate : 25.000 FPS
Color space : YUV
Chroma subsampling : 4:2:0
Bit depth : 8 bits
Scan type : Progressive
Bits/(Pixel*Frame) : 0.087
Stream size : 2.84 GiB (89%)
Writing library : core 150
Encoding settings : cabac=1 / ref=2 / deblock=1:0:0 / analyse=0x3:0x113 / me=hex / subme=6 / psy=1 / psy_rd=1.00:0.00 / mixed_ref=1 / me_range=16 / chroma_me=1 / trellis=1 / 8x8dct=1 / cqm=0 / deadzone=21,11 / fast_pskip=1 / chroma_qp_offset=-2 / threads=12 / lookahead_threads=2 / sliced_threads=0 / nr=0 / decimate=1 / interlaced=0 / bluray_compat=0 / constrained_intra=0 / bframes=3 / b_pyramid=2 / b_adapt=1 / b_bias=0 / direct=1 / weightb=1 / open_gop=0 / weightp=1 / keyint=50 / keyint_min=26 / scenecut=0 / intra_refresh=0 / rc_lookahead=30 / rc=cbr / mbtree=1 / bitrate=4500 / ratetol=1.0 / qcomp=0.60 / qpmin=0 / qpmax=69 / qpstep=4 / vbv_maxrate=4500 / vbv_bufsize=9000 / nal_hrd=none / filler=0 / ip_ratio=1.40 / aq=1:1.00
Language : Polish
Default : Yes
Forced : No

Audio #1
ID : 2
Format : AC-3
Format/Info : Audio Coding 3
Commercial name : Dolby Digital
Codec ID : A_AC3
Duration : 1 h 31 min
Bit rate mode : Constant
Bit rate : 192 kb/s
Channel(s) : 2 channels
Channel layout : L R
Sampling rate : 48.0 kHz
Frame rate : 31.250 FPS (1536 SPF)
Bit depth : 16 bits
Compression mode : Lossy
Delay relative to video : -46 ms
Stream size : 125 MiB (4%)
Language : Ukrainian
Service kind : Complete Main
Default : Yes
Forced : Yes

Audio #2
ID : 3
Format : LC
Format/Info : Advanced Audio Codec Low Complexity
Codec ID : A_AAC-2
Duration : 1 h 31 min
Bit rate : 384 kb/s
Channel(s) : 2 channels
Channel layout : L R
Sampling rate : 44.1 kHz
Frame rate : 43.066 FPS (1024 SPF)
Compression mode : Lossy
Delay relative to video : -46 ms
Stream size : 251 MiB (8%)
Language : Polish
Default : No
Forced : No
Скріншоти





Джерело:


Срібний реліз (на рейтинг впливає 50% завантаженого)
 Трекер:    Зареєстрований   

Завантажити / скачати фільм українською



відео для новачків



 Зареєстрований:   2019-10-12 23:05
 Розмір:   3.21 GB 
 Оцінка фільму:   10/10 (Голосів: 2)
   
Anonymous 







2019-10-12 23:08  
на Толоці є субтитрований реліз https://toloka.to/t50075 , чисте відео без логотипів, але вшиті субтитри
Ваш часовий пояс: GMT + 2 Години

Нова тема   Відповісти