Король Лев / The Lion King (2019) Remux 1080p Ukr/Eng | Sub Eng

Нові коментарі

Нова тема   Відповісти
Автор Повідомлення
Anonymous 







2019-10-12 19:05  


Король Лев / The Lion King (2019) Remux 1080p Ukr/Eng | Sub Eng



Король Лев / The Lion King (2019) Remux 1080p Ukr/Eng | Sub Eng



«Король повернувся»



Жанр: драма, анімаційний, мюзикл, пригодницький, сімейний
Країна:США





Кінокомпанія: Walt Disney Pictures, Fairview Entertainment
Режисер:] Джон Фавро
Актори: Джеймс Ерл Джонс, Дональд Гловер, Чіветел Еджиофор, Джон Олівер, Джон Кані, Елфрі Вудард, Шахаді Райт Джозеф, Пенні Джонсон, Кіген-Майкл Кі


Сюжет:
В африканській савані народжується новий король. Левеня Сімба ідеалізує свого батька короля Муфасу і серйозно ставиться до своєї королівської долі. Але не всі в королівстві звірів раді появі Сімби на світ — брат Муфаси Шрам будує плани, як скинути короля і зайняти його місце. Сімба опиняється у вигнанні і за допомогою нових друзів Тимона та Пумби і давньої подруги Нали повинен стати дорослим левом і повернутися додому, щоб зайняти трон в царстві звірів.



Тривалість: 01:58:15
Якість: Remux 1080p

Відео:
кодек:
розмір кадру: 1920x1080
бітрейт: 27,6 Мб/с

Аудіо # 1:
мова: українська
переклад: професійний дубльований
кодек: 2.0
бітрейт: 192 кб/с

Аудіо # 2:
мова: англійська
переклад: оригінал
кодек: 5.1
бітрейт: 640 кб/с

Аудіо # 3:
мова: англійська
переклад: оригінал
кодек: -HD MA 7.1
бітрейт: 5091 кб/с

Аудіо # 4:
мова: англійська
переклад: оригінал |Commentary|
кодек: 2.0
бітрейт: 192 кб/с

Субтитри: (Full,SDH)
мова: англійська
тип: програмні (м'які)
формат: *.srt

Info
Код:
General
Complete name                            : The Lion King (2019) Remux 1080p [UKR_ENG] [ViDeO_Hurtom].
Format                                   :
Format version                           : Version 4
File size                                : 27.8 GiB
Duration                                 : 1 h 58 min
Overall bit rate mode                    : Variable
Overall bit rate                         : 33.7 Mb/s
Movie name                               : The Lion King (2019) Remux 1080p [UKR_ENG] [ViDeO_Hurtom]
Encoded date                             : UTC 2019-10-12 14:28:12
Writing application                      : v30.1.0 ('Forever And More') 64-bit
Writing library                          : libebml v1.3.6 + v1.4.9
Cover                                    : Yes
Attachments                              : cover.jpg

Video
ID                                       : 1
Format                                   : AVC
Format/Info                              : Advanced Video Codec
Format profile                           : [email protected]
Format settings                          : CABAC / 4 Ref Frames
Format settings, CABAC                   : Yes
Format settings, RefFrames               : 4 frames
Codec ID                                 : V_MPEG4/ISO/AVC
Duration                                 : 1 h 58 min
Bit rate mode                            : Variable
Bit rate                                 : 27.6 Mb/s
Maximum bit rate                         : 35.0 Mb/s
Width                                    : 1 920 pixels
Height                                   : 1 080 pixels
Display aspect ratio                     : 16:9
Frame rate mode                          : Constant
Frame rate                               : 23.976 (24000/1001) FPS
Color space                              : YUV
Chroma subsampling                       : 4:2:0
Bit depth                                : 8 bits
Scan type                                : Progressive
Bits/(Pixel*Frame)                       : 0.554
Stream size                              : 22.8 GiB (82%)
Default                                  : Yes
Forced                                   : No

Audio #1
ID                                       : 2
Format                                   : AC-3
Format/Info                              : Audio Coding 3
Commercial name                          : Dolby Digital
Codec ID                                 : A_AC3
Duration                                 : 1 h 58 min
Bit rate mode                            : Constant
Bit rate                                 : 192 kb/s
Channel(s)                               : 2 channels
Channel layout                           : L R
Sampling rate                            : 48.0 kHz
Frame rate                               : 31.250 FPS (1536 SPF)
Bit depth                                : 16 bits
Compression mode                         : Lossy
Stream size                              : 162 MiB (1%)
Title                                    : , 2/0 (L,R) ch, ~192 kbps
Language                                 : Ukrainian
Service kind                             : Complete Main
Default                                  : Yes
Forced                                   : No

Audio #2
ID                                       : 3
Format                                   : AC-3
Format/Info                              : Audio Coding 3
Commercial name                          : Dolby Digital
Codec ID                                 : A_AC3
Duration                                 : 1 h 58 min
Bit rate mode                            : Constant
Bit rate                                 : 640 kb/s
Channel(s)                               : 6 channels
Channel layout                           : L R C LFE Ls Rs
Sampling rate                            : 48.0 kHz
Frame rate                               : 31.250 FPS (1536 SPF)
Bit depth                                : 16 bits
Compression mode                         : Lossy
Stream size                              : 541 MiB (2%)
Title                                    : , 3/2 (L,C,R,l,r) + LFE ch, ~640 kbps
Language                                 : English
Service kind                             : Complete Main
Default                                  : No
Forced                                   : No

Audio #3
ID                                       : 4
Format                                   : XLL
Format/Info                              : Digital Theater Systems
Commercial name                          : -HD Master Audio
Codec ID                                 : A_DTS
Duration                                 : 1 h 58 min
Bit rate mode                            : Variable
Bit rate                                 : 5 091 kb/s
Channel(s)                               : 8 channels
Channel layout                           : C L R LFE Lb Rb Lss Rss
Sampling rate                            : 48.0 kHz
Frame rate                               : 93.750 FPS (512 SPF)
Bit depth                                : 24 bits
Compression mode                         : Lossless
Stream size                              : 4.21 GiB (15%)
Title                                    : -HD MA 7.1, ~5091 kbps
Language                                 : English
Default                                  : No
Forced                                   : No

Audio #4
ID                                       : 5
Format                                   : AC-3
Format/Info                              : Audio Coding 3
Commercial name                          : Dolby Digital
Codec ID                                 : A_AC3
Duration                                 : 1 h 58 min
Bit rate mode                            : Constant
Bit rate                                 : 192 kb/s
Channel(s)                               : 2 channels
Channel layout                           : L R
Sampling rate                            : 48.0 kHz
Frame rate                               : 31.250 FPS (1536 SPF)
Bit depth                                : 16 bits
Compression mode                         : Lossy
Stream size                              : 162 MiB (1%)
Title                                    : , 2/0 (L,R) ch, ~192 kbps
Language                                 : English
Service kind                             : Complete Main
Default                                  : No
Forced                                   : No

Text #1
ID                                       : 6
Format                                   : UTF-8
Codec ID                                 : S_TEXT/UTF8
Codec ID/Info                            : UTF-8 Plain Text
Duration                                 : 1 h 46 min
Bit rate                                 : 50 b/s
Count of elements                        : 1369
Stream size                              : 39.1 KiB (0%)
Title                                    : Full
Language                                 : English
Default                                  : Yes
Forced                                   : No

Text #2
ID                                       : 7
Format                                   : UTF-8
Codec ID                                 : S_TEXT/UTF8
Codec ID/Info                            : UTF-8 Plain Text
Duration                                 : 1 h 52 min
Bit rate                                 : 58 b/s
Count of elements                        : 1705
Stream size                              : 47.6 KiB (0%)
Title                                    : SDH
Language                                 : English
Default                                  : No
Forced                                   : No

Скріншоти







Джерело:
Особиста оцінка: 10 - без зайвих вагань рекомендую всім!



Золотий реліз (завантажене не впливає на рейтинг)
 Трекер:    Зареєстрований   

Завантажити / скачати фільм українською



відео для новачків



 Зареєстрований:   2019-10-12 19:05
 Розмір:   27.82 GB 
 Оцінка фільму:   8.7/10 (Голосів: 21)
   
Інші релізи
   Король Лев / The Lion King (2019) 1080p H.265 Ukr/Eng | Sub Eng antik_2008  122 / 5   7.36 GB   2019-10-12 17:21 
   Король Лев / The Lion King (2019) 720p Ukr/Eng | Sub Eng 11FrYkT  182 / 4   3.27 GB   2019-10-12 12:48 
   Король Лев / The Lion King (2019) UHD Remux 4K 2160p HDR H.265 Ukr/Eng | Sub Eng antik_2008  53 / 6   49.66 GB   2019-10-12 00:33 
   Король Лев / The Lion King (2019) 1080p Ukr/Eng | Sub Eng antik_2008  153 / 10   16.17 GB   2019-10-12 00:16 
   Король Лев / The Lion King (2019) antik_2008  240 / 12   1.88 GB   2019-10-11 19:36 
   Король Лев / The Lion King (2019) AVC Ukr/Eng | Sub Eng 11FrYkT  402 / 16   2.18 GB   2019-10-11 13:00 
Soncezahyst 
Частий відвідувач


З нами з: 12.05.19
Востаннє: 18.10.19
Повідомлень: 32

2019-10-13 19:09  
Підкажіть будь ласка, чому звук не 5.1? І чи є сенс почекати?
Anonymous 







2019-10-13 19:29  
Soncezahyst
Тому що поки тільки такий є Happy

Ваш часовий пояс: GMT + 2 Години

Нова тема   Відповісти