Вікі Крістіна Барселона / Vicky Cristina Barcelona (2008) Remux 1080p 2хUkr/Eng | Sub Eng/Spa

Нові коментарі

Нова тема   Відповісти
Автор Повідомлення
Anonymous 







2019-10-12 17:22  
Вікі Крістіна Барселона / Vicky Cristina Barcelona (2008) Remux 1080p 2хUkr/Eng | Sub Eng/Spa

Вікі Крістіна Барселона / Vicky Cristina Barcelona (2008) Remux 1080p 2хUkr/Eng | Sub Eng/Spa


Жанр: драма, мелодрама
Країна: США, Іспанія



Кінокомпанія: Antena 3 Films, Antena 3 Televisión, Gravier Productions, Mediapro
Режисер: Вуді Аллен (Woody Allen)
Актори: Ребекка Голл (Rebecca Hall), Скарлетт Йоганссон (Scarlett Johansson), Хав'єр Бардем (Javier Bardem), Пенелопа Круз (Penélope Cruz), Крістофер Еван Велч (Christopher Evan Welch) та інші.

Сюжет:
Любовний трикутник, або, скоріше, квадрат створив в своєму новому фільмі знаменитий Вуді Аллен. Американки Віки (Ребекка Голл) і Крістіна (Скарлетт Йоганссон) приїжджають до Барселони. У них дещо різні погляди на життя, але кожна не проти розважитися на свій лад. І це їм вдається після знайомства на одній з виставок з іспанським художником Антоніо (Хав’ер Бардем). Їх розваги стають різноманітнішими, а відносини складнішими, коли на сцені з’являється колишня дружина Антоніо (Пенелопа Круз), яка не збирається повністю здавати своїх позицій.


Тривалість: 01:36:44
Якість: Remux 1080p
Відео:
кодек:
розмір кадру: 1920х1080
бітрейт: 25178 кб/с

Аудіо # 1:
мова: українська
переклад: професійний дубльований
кодек: 2.0
бітрейт: 192 кб/с

Аудіо # 2:
мова: українська
переклад: багатоголосий закадровий
кодек: 2.0
бітрейт: 192 кб/с

Аудіо # 3:
мова: англійська
переклад: оригінал
кодек: 5.1
бітрейт: 448 кб/с

Аудіо # 4:
мова: англійська
переклад: оригінал
кодек: -HD Master 2.1
бітрейт: 1668 кб/с

Субтитри:
мова: англійська
тип: програмні (м'які)
формат: *.pgs

Субтитри:
мова: іспанська
тип: програмні (м'які)
формат: *.pgs
Скріншоти



Info
Код:
General
Complete name                            : Vicky Cristina Barcelona (2008) Remux 1080p [UKR_ENG] [ViDeO_Hurtom].
Format                                   :
Format version                           : Version 4
File size                                : 18.7 GiB
Duration                                 : 1 h 36 min
Overall bit rate mode                    : Variable
Overall bit rate                         : 27.7 Mb/s
Movie name                               : Вікі Крістіна Барселона / Vicky Cristina Barcelona (2008) Remux 1080p [UKR_ENG] [ViDeO_Hurtom]
Encoded date                             : UTC 2019-10-12 12:36:33
Writing application                      : v30.1.0 ('Forever And More') 64-bit
Writing library                          : libebml v1.3.6 + v1.4.9
Cover                                    : Yes
Attachments                              : cover.jpg

Video
ID                                       : 1
Format                                   : VC-1
Format profile                           : [email protected]
Codec ID                                 : V_MS/VFW/FOURCC / WVC1
Codec ID/Hint                            : Microsoft
Duration                                 : 1 h 36 min
Bit rate                                 : 25.2 Mb/s
Width                                    : 1 920 pixels
Height                                   : 1 080 pixels
Display aspect ratio                     : 16:9
Frame rate mode                          : Constant
Frame rate                               : 23.976 (24000/1001) FPS
Color space                              : YUV
Chroma subsampling                       : 4:2:0
Bit depth                                : 8 bits
Scan type                                : Progressive
Compression mode                         : Lossy
Bits/(Pixel*Frame)                       : 0.506
Stream size                              : 17.0 GiB (91%)
Default                                  : Yes
Forced                                   : No

Audio #1
ID                                       : 2
Format                                   : AC-3
Format/Info                              : Audio Coding 3
Commercial name                          : Dolby Digital
Codec ID                                 : A_AC3
Duration                                 : 1 h 36 min
Bit rate mode                            : Constant
Bit rate                                 : 192 kb/s
Channel(s)                               : 2 channels
Channel layout                           : L R
Sampling rate                            : 48.0 kHz
Frame rate                               : 31.250 FPS (1536 SPF)
Bit depth                                : 16 bits
Compression mode                         : Lossy
Stream size                              : 133 MiB (1%)
Title                                    : [Ukrainian] DD 2.0 @ 192 kbps | TET
Language                                 : Ukrainian
Service kind                             : Complete Main
Default                                  : Yes
Forced                                   : No

Audio #2
ID                                       : 3
Format                                   : AC-3
Format/Info                              : Audio Coding 3
Commercial name                          : Dolby Digital
Codec ID                                 : A_AC3
Duration                                 : 1 h 36 min
Bit rate mode                            : Constant
Bit rate                                 : 192 kb/s
Channel(s)                               : 2 channels
Channel layout                           : L R
Sampling rate                            : 48.0 kHz
Frame rate                               : 31.250 FPS (1536 SPF)
Bit depth                                : 16 bits
Compression mode                         : Lossy
Stream size                              : 133 MiB (1%)
Title                                    : [Ukrainian] DD 2.0 @ 192 kbps | K1
Language                                 : Ukrainian
Service kind                             : Complete Main
Default                                  : No
Forced                                   : No

Audio #3
ID                                       : 4
Format                                   : AC-3
Format/Info                              : Audio Coding 3
Commercial name                          : Dolby Digital
Codec ID                                 : A_AC3
Duration                                 : 1 h 36 min
Bit rate mode                            : Constant
Bit rate                                 : 448 kb/s
Channel(s)                               : 3 channels
Channel layout                           : L R Cb
Sampling rate                            : 48.0 kHz
Frame rate                               : 31.250 FPS (1536 SPF)
Bit depth                                : 16 bits
Compression mode                         : Lossy
Stream size                              : 310 MiB (2%)
Title                                    : [ORIGINAL] DD 5.1 @ 448 kbps
Service kind                             : Complete Main
Default                                  : No
Forced                                   : No

Audio #4
ID                                       : 5
Format                                   : XLL
Format/Info                              : Digital Theater Systems
Commercial name                          : -HD Master Audio
Codec ID                                 : A_DTS
Duration                                 : 1 h 36 min
Bit rate mode                            : Variable
Bit rate                                 : 1 668 kb/s
Channel(s)                               : 3 channels
Channel layout                           : C L R
Sampling rate                            : 48.0 kHz
Frame rate                               : 93.750 FPS (512 SPF)
Bit depth                                : 16 bits
Compression mode                         : Lossless
Delay relative to video                  : 42 ms
Stream size                              : 1.13 GiB (6%)
Title                                    : [ORIGINAL] -HD MA 2.1 @ 1668 kbps
Language                                 : English
Default                                  : No
Forced                                   : No

Text #1
ID                                       : 6
Format                                   : PGS
Muxing mode                              : zlib
Codec ID                                 : S_HDMV/PGS
Codec ID/Info                            : Picture based subtitle format used on BDs/HD-DVDs
Duration                                 : 1 h 34 min
Bit rate                                 : 59.4 kb/s
Count of elements                        : 3223
Stream size                              : 40.0 MiB (0%)
Language                                 : English
Default                                  : Yes
Forced                                   : No

Text #2
ID                                       : 7
Format                                   : PGS
Muxing mode                              : zlib
Codec ID                                 : S_HDMV/PGS
Codec ID/Info                            : Picture based subtitle format used on BDs/HD-DVDs
Duration                                 : 1 h 31 min
Bit rate                                 : 53.3 kb/s
Count of elements                        : 2976
Stream size                              : 34.8 MiB (0%)
Language                                 : Spanish
Default                                  : No
Forced                                   : No
Подяка:
Пану xslim та пану robotron005 за доріжки
Джерело: &
Особиста оцінка: 8 - мені сподобалося

Вікі Крістіна Барселона / Vicky Cristina Barcelona (2008) Remux 1080p 2хUkr/Eng | Sub Eng/Spa

Вікі Крістіна Барселона / Vicky Cristina Barcelona (2008) Remux 1080p 2хUkr/Eng | Sub Eng/Spa


Золотий реліз (завантажене не впливає на рейтинг)
 Трекер:    Зареєстрований   

Завантажити / скачати фільм українською



відео для новачків



 Зареєстрований:   2019-10-12 17:22
 Розмір:   18.73 GB 
 Оцінка фільму:   9.3/10 (Голосів: 6)
   
Anonymous 







2019-10-13 19:37  
8 | 10
ngxwinger 
Свій


З нами з: 19.01.14
Востаннє: 18.10.19
Повідомлень: 53

2019-10-18 07:15  
Вчора ввечері переглядали з дружиною, враження від стрічки залишились приємні, ще деякий час в голові грала музика про Барселону =)
Ваш часовий пояс: GMT + 2 Години

Нова тема   Відповісти