Король Лев / The Lion King (2019) 1080p H.265 Ukr/Eng | Sub Eng

Нові коментарі

Нова тема   Відповісти
Автор Повідомлення
Anonymous 







2019-10-12 17:21  


Король Лев / The Lion King (2019) 1080p H.265 Ukr/Eng | Sub Eng



Король Лев / The Lion King (2019) 1080p H.265 Ukr/Eng | Sub Eng



«Король повернувся»



Жанр: драма, анімаційний, мюзикл, пригодницький, сімейний
Країна:США





Кінокомпанія: Walt Disney Pictures, Fairview Entertainment
Режисер:] Джон Фавро
Актори: Джеймс Ерл Джонс, Дональд Гловер, Чіветел Еджиофор, Джон Олівер, Джон Кані, Елфрі Вудард, Шахаді Райт Джозеф, Пенні Джонсон, Кіген-Майкл Кі


Сюжет:
В африканській савані народжується новий король. Левеня Сімба ідеалізує свого батька короля Муфасу і серйозно ставиться до своєї королівської долі. Але не всі в королівстві звірів раді появі Сімби на світ — брат Муфаси Шрам будує плани, як скинути короля і зайняти його місце. Сімба опиняється у вигнанні і за допомогою нових друзів Тимона та Пумби і давньої подруги Нали повинен стати дорослим левом і повернутися додому, щоб зайняти трон в царстві звірів.



Тривалість: 01:58:15
Якість: 1080p

Відео:
кодек: H.265 (HEVC)
розмір кадру: 1920x1080
бітрейт: 7201 кб/с
бітова глибина: 10 біт

Аудіо # 1:
мова: українська
переклад: професійний дубльований | студія LeDoyen
кодек: 5.1
бітрейт: 1536 кб/с
Інформація про дубляж
Аудіо # 2:
мова: українська
переклад: професійний дубльований | студія LeDoyen
кодек: 5.1
бітрейт: 640 кб/с

Аудіо # 2:
мова: англійська
переклад: оригінал
кодек: 5.1
бітрейт: 1509 кб/с

Субтитри: (Full, SDH)
мова: англійська
тип: програмні (м'які)
формат: *.srt


Збережено оригінальні розділи, як на Blu-ray.

Info
Код:
General
Complete name                            : The Lion King (2019) 1080p H.265 [ukr, eng] [Video_Hurtom].
Format                                   :
Format version                           : Version 4
File size                                : 8.97 GiB
Duration                                 : 1 h 58 min
Overall bit rate                         : 10.9 Mb/s
Movie name                               : The Lion King (2019) 1080p H.265 [Ukr_Eng] [Video_Hurtom]
Encoded date                             : UTC 2019-12-16 18:18:56
Writing application                      : v30.1.0 ('Forever And More') 64-bit
Writing library                          : libebml v1.3.6 + v1.4.9
Cover                                    : Yes
Attachments                              : cover.jpg

Video
ID                                       : 1
Format                                   : HEVC
Format/Info                              : High Efficiency Video Coding
Format profile                           : Main [email protected]@Main
Codec ID                                 : V_MPEGH/ISO/HEVC
Duration                                 : 1 h 58 min
Bit rate                                 : 7 201 kb/s
Width                                    : 1 920 pixels
Height                                   : 1 080 pixels
Display aspect ratio                     : 16:9
Frame rate mode                          : Constant
Frame rate                               : 23.976 (24000/1001) FPS
Original frame rate                      : 23.976 (23976/1000) FPS
Color space                              : YUV
Chroma subsampling                       : 4:2:0
Bit depth                                : 10 bits
Bits/(Pixel*Frame)                       : 0.145
Stream size                              : 5.95 GiB (66%)
Title                                    : CHD
Writing library                          : x265 3.1.2+1-76650bab70f9:[Windows][MSVC 1922][64 bit] 10bit
Encoding settings                        : cpuid=1111039 / frame-threads=5 / numa-pools=36,36 / wpp / no-pmode / no-pme / no-psnr / no-ssim / log-level=2 / input-csp=1 / input-res=1920x1080 / interlace=0 / total-frames=0 / level-idc=0 / high-tier=1 / uhd-bd=0 / ref=6 / no-allow-non-conformance / repeat-headers / annexb / no-aud / no-hrd / info / hash=0 / no-temporal-layers / no-open-gop / min-keyint=23 / keyint=250 / gop-lookahead=0 / bframes=8 / b-adapt=2 / b-pyramid / bframe-bias=0 / rc-lookahead=24 / lookahead-slices=6 / scenecut=40 / radl=0 / no-splice / no-intra-refresh / ctu=64 / min-cu-size=8 / no-rect / no-amp / max-tu-size=32 / tu-inter-depth=1 / tu-intra-depth=1 / limit-tu=0 / rdoq-level=0 / dynamic-rd=0.00 / no-ssim-rd / signhide / no-tskip / nr-intra=0 / nr-inter=0 / no-constrained-intra / no-strong-intra-smoothing / max-merge=3 / limit-refs=1 / no-limit-modes / me=2 / subme=7 / merange=48 / temporal-mvp / weightp / weightb / no-analyze-src-pics / deblock=0:0 / sao / no-sao-non-deblock / rd=4 / early-skip / rskip / no-fast-intra / no-tskip-fast / no-cu-lossless / b-intra / no-splitrd-skip / rdpenalty=0 / psy-rd=2.00 / psy-rdoq=0.00 / no-rd-refine / no-lossless / cbqpoffs=0 / crqpoffs=0 / rc=crf / crf=16.0 / qcomp=0.60 / qpstep=4 / stats-write=0 / stats-read=0 / ipratio=1.40 / pbratio=1.30 / aq-mode=3 / aq-strength=1.00 / cutree / zone-count=0 / no-strict-cbr / qg-size=32 / no-rc-grain / qpmax=69 / qpmin=0 / no-const-vbv / sar=0 / overscan=0 / videoformat=5 / range=0 / colorprim=2 / transfer=2 / colormatrix=2 / chromaloc=0 / display-window=0cll=0,0 / min-luma=0 / max-luma=1023 / log2-max-poc-lsb=8 / vui-timing-info / vui-hrd-info / slices=1 / no-opt-qp-pps / no-opt-ref-list-length-pps / no-multi-pass-opt-rps / scenecut-bias=0.05 / no-opt-cu-delta-qp / aq-motion / no-hdr / no-hdr-opt / no-dhdr10-opt / no-idr-recovery-sei / analysis-reuse-level=5 / scale-factor=0 / refine-intra=0 / refine-inter=0 / refine-mv=0 / refine-ctu-distortion=0 / no-limit-sao / ctu-info=0 / no-lowpass-dct / refine-analysis-type=0 / copy-pic=1 / max-ausize-factor=1.0 / no-dynamic-refine / no-single-sei / no-hevc-aq / no-svt / no-field / qp-adaptation-range=1.00
Language                                 : English
Default                                  : Yes
Forced                                   : No

Audio #1
ID                                       : 2
Format                                   :
Format/Info                              : Digital Theater Systems
Codec ID                                 : A_DTS
Duration                                 : 1 h 58 min
Bit rate mode                            : Constant
Bit rate                                 : 1 509 kb/s
Channel(s)                               : 6 channels
Channel layout                           : C L R Ls Rs LFE
Sampling rate                            : 48.0 kHz
Frame rate                               : 93.750 FPS (512 SPF)
Bit depth                                : 24 bits
Compression mode                         : Lossy
Stream size                              : 1.25 GiB (14%)
Title                                    : [Ukrainian] 5.1 @ 1536 kbps (Core)
Language                                 : Ukrainian
Default                                  : Yes
Forced                                   : No

Audio #2
ID                                       : 3
Format                                   : AC-3
Format/Info                              : Audio Coding 3
Commercial name                          : Dolby Digital
Codec ID                                 : A_AC3
Duration                                 : 1 h 58 min
Bit rate mode                            : Constant
Bit rate                                 : 640 kb/s
Channel(s)                               : 6 channels
Channel layout                           : L R C LFE Ls Rs
Sampling rate                            : 48.0 kHz
Frame rate                               : 31.250 FPS (1536 SPF)
Bit depth                                : 16 bits
Compression mode                         : Lossy
Stream size                              : 541 MiB (6%)
Title                                    : [Ukrainian] DD 5.1 @ 640 kbps
Language                                 : Ukrainian
Service kind                             : Complete Main
Default                                  : No
Forced                                   : No

Audio #3
ID                                       : 4
Format                                   :
Format/Info                              : Digital Theater Systems
Codec ID                                 : A_DTS
Duration                                 : 1 h 58 min
Bit rate mode                            : Constant
Bit rate                                 : 1 509 kb/s
Channel(s)                               : 6 channels
Channel layout                           : C L R Ls Rs LFE
Sampling rate                            : 48.0 kHz
Frame rate                               : 93.750 FPS (512 SPF)
Bit depth                                : 24 bits
Compression mode                         : Lossy
Stream size                              : 1.25 GiB (14%)
Title                                    : [ORIGINAL] 5.1 @ 1509 kbps (Core)
Language                                 : English
Default                                  : No
Forced                                   : No

Text #1
ID                                       : 5
Format                                   : UTF-8
Codec ID                                 : S_TEXT/UTF8
Codec ID/Info                            : UTF-8 Plain Text
Duration                                 : 1 h 46 min
Bit rate                                 : 50 b/s
Count of elements                        : 1369
Stream size                              : 39.1 KiB (0%)
Title                                    : Full
Language                                 : English
Default                                  : No
Forced                                   : No

Text #2
ID                                       : 6
Format                                   : UTF-8
Codec ID                                 : S_TEXT/UTF8
Codec ID/Info                            : UTF-8 Plain Text
Duration                                 : 1 h 52 min
Bit rate                                 : 58 b/s
Count of elements                        : 1705
Stream size                              : 47.6 KiB (0%)
Title                                    : SDH
Language                                 : English
Default                                  : Yes
Forced                                   : No

Menu
00:00:00.000                             : en:"Circle Of Life/Nants' Ingonyama"
00:04:50.499                             : en:"Life's Not Fair"
00:10:51.067                             : en:"Everything The Light Touches"
00:17:47.692                             : en:"I Just Can't Wait To Be King"
00:23:53.015                             : en:Elephant Graveyard
00:30:00.132                             : en:Under The Stars
00:33:05.066                             : en:"Be Prepared"
00:37:09.310                             : en:Stampede
00:43:42.912                             : en:Scar Takes Over
00:50:47.336                             : en:Timon And Pumbaa
00:55:02.716                             : en:"Hakuna Matata"
00:59:48.460                             : en:Scar's Kingdom
01:06:27.233                             : en:"Line Of Indifference"
01:14:32.093                             : en:"The Lion Sleeps Tonight"
01:18:26.410                             : en:"Can You Feel The Love Tonight"
01:23:07.900                             : en:"He Lives In You"
01:28:04.654                             : en:"Spirit"
01:33:10.877                             : en:Simba Confronts Scar
01:37:13.745                             : en:Battle For Pride Rock
01:44:39.190                             : en:The Rightful King
01:47:47.336                             : en:End Credits/"Never Too Late"

Скріншоти






Джерело:
Особиста оцінка: 10 - без зайвих вагань рекомендую всім!
Подяка пану Hanway за синхронізацію звуку.


Увага! Перед завантаженням переконайтесь, що ваш пристрій відтворення (та/або ПЗ) підтримує H.265 (HEVC)




 Трекер:    Зареєстрований   

Завантажити / скачати фільм українською



відео для новачків



 Зареєстрований:   2019-12-16 21:30
 Розмір:   8.97 GB 
 Оцінка фільму:   9.3/10 (Голосів: 53)
   
Інші релізи
   Король Лев / The Lion King (2019) 1080p H.265 Ukr/Eng | Sub Eng -Star-Lord-  11 / 1   11.24 GB   2019-12-17 15:28 
   Король Лев / The Lion King (2019) Remux 1080p Ukr/Eng | Sub Eng antik_2008  2 / 0   32.7 GB   2019-12-17 00:30 
   Король Лев / The Lion King (2019) 1080p Ukr/Eng | Sub Eng antik_2008  10 / 0   17.79 GB   2019-12-17 00:29 
   Король Лев / The Lion King (2019) UHD Remux 4K 2160p HDR H.265 Ukr/Eng | Sub Eng antik_2008  8 / 0   54.54 GB   2019-12-16 23:13 
   Король Лев / The Lion King (2019) antik_2008  13 / 0   2.09 GB   2019-12-16 18:09 
   Король Лев / The Lion King (2019) AVC Ukr/Eng | Sub Eng 11FrYkT  20 / 0   2.44 GB   2019-12-16 17:19 
   Король Лев / The Lion King (2019) 720p Ukr/Eng | Sub Eng 11FrYkT  12 / 0   5.78 GB   2019-12-16 17:02 
RAZE007 
Новенький


З нами з: 20.03.18
Востаннє: 19.07.20
Повідомлень: 5

2019-10-12 22:42  
дякую за роздачу
winjer 
Новенький


З нами з: 20.03.16
Востаннє: 23.07.20
Повідомлень: 16

2019-10-14 22:19  
коли буде кращий звук?
Siegfried 
VIP


З нами з: 01.11.11
Востаннє: 07.08.20
Повідомлень: 321

2019-10-19 17:53  
Свого часу мультик справив дещо краще враження, хоча його сценарій вже тоді виглядав банальним і неоригінальним: король, його брат-зрадник, принц-вигнанець, що одного дня поверне трон - історія стара як світ.

У фільмі нічого нового крім технологій, але ними зараз важко когось здивувати.

Зовсім необов'язковий до перегляду. Технологічний рівень можна і з трейлеру зрозуміти.

4.0/10

Anonymous 







2019-12-16 21:31  
16.12.2019 Роздачу оновлено


Замінив доріжку на якіснішу

darklight94 
Поважний учасник


З нами з: 08.07.18
Востаннє: 07.08.20
Повідомлень: 150

2019-12-16 23:30  
Думав, вже не буде якісних доріжок)
Григорій Лахно 
Новенький


З нами з: 02.08.12
Востаннє: 06.08.20
Повідомлень: 10

2020-01-03 16:01  
Елементів мюзиклу, як на мене забагато, все крім оригінальних тем "Акуна матата" і пісні джунглівя я б прибрав, але в принципі, так і в мультику було, ну краще вони б відійшли від цього. Зрештую історія ідеально перемальована з оригінальної картини. Сміюсь в голос з тих, хто розказує, що оригінал набагато краще. Це люди, для яких дитячі відчуття завджи будуть створювати ілюзію, що раніще було краще, смачніше і тд. Ті хто зараз вперше переглянули цю шикарну анімацію, наврядчи вже змодуть сприймати оригінал, та й не потрібно)))

Особисто мій "дорослий мозок", не сприймав, деякі неузгодженісті сюжету. По перше, Шрам, який був довгий час у владі та ситим, так і залишився худим, облізлим та змордованим - ну якось вже зовсім не відновився, не від'ївся) По друге, Сімба який жив все життя біля травоїдних і був веганом, без ніякої підводки різко став хижим та агресивним левом, який зміг дати бій практикучим хижакам)

манагер 
Новенький


З нами з: 12.06.15
Востаннє: 17.07.20
Повідомлень: 2

2020-01-09 00:00  
Вражаюче занурення у реалістичний світ тварин, картинка просто неймовірна! Сюжет і всі події - вже давно бачені, тому, звичайно, викликають деяку нудьгу. Деякі "актори" втратили виразність, зокрема, Тимон (що дозволяє виглядати йому більш природно). В той же час гієна виявилась аж занадто виразною, що виокремлює її з потоку.
Подивитись варто

Ваш часовий пояс: GMT + 2 Години

Нова тема   Відповісти