Погані хлопці / Bad Boys (1995) Remux 1080p [Remastered] 3xUkr/Eng | Sub Eng

Нові коментарі

Нова тема   Відповісти
Автор Повідомлення
MakRA 
VIP


З нами з: 11.11.18
Востаннє: 22.10.19
Повідомлень: 444

2019-10-12 01:58  
Погані хлопці / Bad Boys (1995) Remux 1080p [Remastered] 3xUkr/Eng | Sub Eng


Український постер:

Альтернативні обкладинки:


Жанр: екшн, комедія, кримінальний
Країна: США



Кінокомпанія: Don Simpson/Jerry Bruckheimer Films, Columbia Pictures, Columbia TriStar Film
Режисер: Майкл Бей [Michael Bay]
Актори: Мартін Лоуренс [Martin Lawrence], Вілл Сміт [Will Smith], Тіа Леоні [Téa Leoni], Чекі Каріо [Tchéky Karyo], Тереза Рендл [Theresa Randle], Марг Гелгенбергер [Marg Helgenberger], Нестор Серрано [Nestor Serrano], Хуліо Оскар Мечосо [Julio Oscar Mechoso], Саверіо Гуерра [Saverio Guerra], Анна Томсон [Anna Levine-Thomson], Джо Пантоліано [Joe Pantoliano]

Сюжет:
Вони - повна протилежність один одного. Один з них - зразковий сім'янин і не має стану, інший багатий і користується всіма благами холостяцького життя. Крім дружби їх об'єднує робота в поліції. Їх нове завдання - зловити жорстокого злочинця, що вкрав наркотики з секретного складу, а також врятувати дівчину, яка випадково опинилася на його шляху. Але для цього друзям доведеться помінятися місцями ....


Тривалість: 01:58:50
Якість: Remux 1080p [Remastered, 20th Anniversary Edition]
Відео:
кодек:
розмір кадру: 1920 х 1080
бітрейт: 24,9 Mб/с

Аудіо # 1:
мова: українська
переклад: багатоголосий закадровий | студія "Так Треба Продакшн"
кодек: 5.1
бітрейт: 384 кб/с
Про озвучення:
Ролі озвучили: Юрій Гребельник (Майк Лоурі / Вілл Сміт), Юрій Ребрик (Маркус Барнетт / Мартін Лоуренс), Олена Яблучна і ще один поки невстановлений чоловічий голос.
Аудіо # 2:
мова: українська
переклад: багатоголосий закадровий | cтудія "Мова
кодек: 5.1
бітрейт: 384 кб/с
Про озвучення:
Ролі озвучили: Михайло Кришталь (Майк Лоурі / Вілл Сміт), ще один чоловічий, Микола Говор (Фуше / Чекі Каріо) і один чи два невстановлених жіночих голоси.
Аудіо # 3:
мова: українська
переклад: багатоголосий закадровий
кодек: 2.0
бітрейт: 192 кб/с

Аудіо # 4:
мова: англійська
переклад: оригінал
кодек: -HD MA 5.1
бітрейт: 2344 кб/с

Аудіо # 5:
мова: англійська
переклад: оригінал
кодек: 5.1
бітрейт: 448 кб/с

Аудіо # 6:
мова: англійська
переклад: коментарі режисера Майкла Бея
кодек: 2.0
бітрейт: 192 кб/с

Субтитри #1: (Full)
мова: англійська
тип: пререндерні
формат: *.pgs

Субтитри # 2: (SDH)
мова: англійська
тип: пререндерні
формат: *.pgs

Субтитри # 3: (на коментарі режисера Майкла Бея)
мова: англійська
тип: пререндерні
формат: *.pgs

Збережено оригінальні розділи, як на Blu-ray.
Info
General
Unique ID : 318820189532044844352141283094856501496 (0xEFDA88F5125D3C6FD84A9EDD16B088F8)
Complete name : N:\+ Фільми в HD\Екшн, кримінал\Bad Boys. Collection Remux 1080p\Bad Boys (1995) Remux 1080p [Remastered] 3xUkrEng Sub Eng [Hurtom].
Format :
Format version : Version 4
File size : 24.0 GiB
Duration : 1 h 58 min
Overall bit rate mode : Variable
Overall bit rate : 28.9 Mb/s
Movie name : Погані хлопці / Bad Boys (1995) Remux 1080p [Remastered] 3xUkr/Eng | Sub Eng [Hurtom]
Encoded date : UTC 2019-10-11 22:07:15
Writing application : v25.0.0 ('Prog Noir') 64-bit
Writing library : libebml v1.3.6 + v1.4.9
Cover : Yes
Attachments : cover.jpg

Video
ID : 1
Format : AVC
Format/Info : Advanced Video Codec
Format profile : [email protected]
Format settings : CABAC / 2 Ref Frames
Format settings, CABAC : Yes
Format settings, Reference fra : 2 frames
Codec ID : V_MPEG4/ISO/AVC
Duration : 1 h 58 min
Bit rate mode : Variable
Bit rate : 24.9 Mb/s
Width : 1 920 pixels
Height : 1 080 pixels
Display aspect ratio : 16:9
Frame rate mode : Constant
Frame rate : 23.976 (24000/1001) FPS
Color space : YUV
Chroma subsampling : 4:2:0
Bit depth : 8 bits
Scan type : Progressive
Bits/(Pixel*Frame) : 0.501
Stream size : 20.7 GiB (86%)
Title : Bad Boys (1995) Remux 1080p [Remastered] 3xUkr/Eng | Sub Eng [Hurtom]
Language : Ukrainian
Default : Yes
Forced : Yes

Audio #1
ID : 2
Format : AC-3
Format/Info : Audio Coding 3
Commercial name : Dolby Digital
Codec ID : A_AC3
Duration : 1 h 58 min
Bit rate mode : Constant
Bit rate : 384 kb/s
Channel(s) : 6 channels
Channel layout : L R C LFE Ls Rs
Sampling rate : 48.0 kHz
Frame rate : 31.250 FPS (1536 SPF)
Bit depth : 16 bits
Compression mode : Lossy
Delay relative to video : 1 s 997 ms
Stream size : 326 MiB (1%)
Title : MVO [ІНТЕР] 5.1
Language : Ukrainian
Service kind : Complete Main
Default : Yes
Forced : Yes

Audio #2
ID : 3
Format : AC-3
Format/Info : Audio Coding 3
Commercial name : Dolby Digital
Codec ID : A_AC3
Duration : 1 h 58 min
Bit rate mode : Constant
Bit rate : 384 kb/s
Channel(s) : 6 channels
Channel layout : L R C LFE Ls Rs
Sampling rate : 48.0 kHz
Frame rate : 31.250 FPS (1536 SPF)
Bit depth : 16 bits
Compression mode : Lossy
Delay relative to video : 897 ms
Stream size : 326 MiB (1%)
Title : MVO [УКРАЇНА] 5.1
Language : Ukrainian
Service kind : Complete Main
Default : No
Forced : No

Audio #3
ID : 4
Format : AC-3
Format/Info : Audio Coding 3
Commercial name : Dolby Digital
Codec ID : A_AC3
Duration : 1 h 58 min
Bit rate mode : Constant
Bit rate : 192 kb/s
Channel(s) : 2 channels
Channel layout : L R
Sampling rate : 48.0 kHz
Frame rate : 31.250 FPS (1536 SPF)
Bit depth : 16 bits
Compression mode : Lossy
Delay relative to video : 21 ms
Stream size : 163 MiB (1%)
Title : MVO [ICTV] 2.0
Language : Ukrainian
Service kind : Complete Main
Default : No
Forced : No

Audio #4
ID : 5
Format : XLL
Format/Info : Digital Theater Systems
Commercial name : -HD Master Audio
Codec ID : A_DTS
Duration : 1 h 58 min
Bit rate mode : Variable
Bit rate : 2 344 kb/s
Channel(s) : 6 channels
Channel layout : C L R Ls Rs LFE
Sampling rate : 48.0 kHz
Frame rate : 93.750 FPS (512 SPF)
Bit depth : 16 bits
Compression mode : Lossless
Stream size : 1.95 GiB (8%)
Title : Original -HD MA 5.1
Language : English
Default : No
Forced : No

Audio #5
ID : 6
Format : AC-3
Format/Info : Audio Coding 3
Commercial name : Dolby Digital
Codec ID : A_AC3
Duration : 1 h 58 min
Bit rate mode : Constant
Bit rate : 448 kb/s
Channel(s) : 6 channels
Channel layout : L R C LFE Ls Rs
Sampling rate : 48.0 kHz
Frame rate : 31.250 FPS (1536 SPF)
Bit depth : 16 bits
Compression mode : Lossy
Delay relative to video : -3 ms
Stream size : 381 MiB (2%)
Title : Original 5.1
Language : English
Service kind : Complete Main
Default : No
Forced : No

Audio #6
ID : 7
Format : AC-3
Format/Info : Audio Coding 3
Commercial name : Dolby Digital
Codec ID : A_AC3
Duration : 1 h 58 min
Bit rate mode : Constant
Bit rate : 192 kb/s
Channel(s) : 2 channels
Channel layout : L R
Sampling rate : 48.0 kHz
Frame rate : 31.250 FPS (1536 SPF)
Bit depth : 16 bits
Compression mode : Lossy
Delay relative to video : -3 ms
Stream size : 163 MiB (1%)
Title : Original 2.0 | Commentary with director Michael Bay
Language : English
Service kind : Complete Main
Default : No
Forced : No

Text #1
ID : 8
Format : PGS
Muxing mode : zlib
Codec ID : S_HDMV/PGS
Codec ID/Info : Picture based subtitle format used on BDs/HD-DVDs
Duration : 1 h 54 min
Bit rate : 38.7 kb/s
Count of elements : 3318
Stream size : 31.6 MiB (0%)
Title : Eng (Full)
Language : English
Default : No
Forced : No

Text #2
ID : 9
Format : PGS
Muxing mode : zlib
Codec ID : S_HDMV/PGS
Codec ID/Info : Picture based subtitle format used on BDs/HD-DVDs
Duration : 1 h 57 min
Bit rate : 46.8 kb/s
Count of elements : 3945
Stream size : 39.3 MiB (0%)
Title : Eng (SDH)
Language : English
Default : No
Forced : No

Text #3
ID : 10
Format : PGS
Muxing mode : zlib
Codec ID : S_HDMV/PGS
Codec ID/Info : Picture based subtitle format used on BDs/HD-DVDs
Duration : 1 h 57 min
Bit rate : 53.0 kb/s
Count of elements : 3816
Stream size : 44.4 MiB (0%)
Title : Eng (Commentary with director Michael Bay)
Language : English
Default : No
Forced : No

Menu
00:00:00.000 : en:Start
00:05:07.472 : en:Heroin Robbery
00:12:01.971 : en:Peeking & Entering
00:17:38.098 : en:Rich Cop, Poor Cop
00:23:33.203 : en:Eddie's Surprise Party
00:31:31.764 : en:Julie's Escape
00:41:09.132 : en:Two Conversations
00:47:35.310 : en:At Lois'
00:54:37.357 : en:Julie Asks for Mike
01:04:05.675 : en:In Julie's Apartment
01:13:49.800 : en:Making Their Getaway
01:20:21.483 : en:Mike's Place
01:27:58.523 : en:Real Bad Headache
01:34:54.271 : en:Problems in the Lab
01:43:09.308 : en:Julie Meets "Marcus"
01:50:51.353 : en:In the Men's Room
Скріншоти
Джерело: &
Висловлюю подяки: за українські доріжки - п. _oles - зведення, п. drakon87 та п. Romario_O - запис з ТБ; за український постер - п. thefir
Особиста оцінка: 10 - без зайвих вагань рекомендую всім!


Золотий реліз (завантажене не впливає на рейтинг)
 Трекер:    Зареєстрований   

Завантажити / скачати фільм українською



відео для новачків



 Зареєстрований:   2019-10-12 01:58
 Розмір:   24.01 GB 
 Оцінка фільму:   9.9/10 (Голосів: 9)
   
Інші релізи
   Погані хлопці / Bad Boys (1995) AVC 3xUkr/Eng | Sub Eng staf777  7 / 0   2.53 GB   2019-09-25 20:58 
   Погані хлопці / Bad Boys (1995) 1080p 2xUkr/Eng | Sub Eng igor911  2 / 0   7.87 GB   2013-06-05 11:23 
   Погані хлопці / Bad Boys (1995) 720p Ukr/Eng imlevchenko  0 / 1   4.36 GB   2011-03-13 22:40 
MakRA 
VIP


З нами з: 11.11.18
Востаннє: 22.10.19
Повідомлень: 444

2019-10-13 13:46  
Погані хлопці 2 / Bad Boys 2 (2003) Remux 1080p [Remastered] 2xUkr/Eng | Sub Eng https://toloka.to/t104768
Ваш часовий пояс: GMT + 2 Години

Нова тема   Відповісти