Король Лев / The Lion King (2019) UHD Remux 4K 2160p HDR H.265 Ukr/Eng | Sub Eng

Нові коментарі

Нова тема   Відповісти
Автор Повідомлення
Anonymous 







2019-10-11 23:31  


Король Лев / The Lion King (2019) UHD Remux 4K 2160p HDR H.265 Ukr/Eng | Sub Eng



Король Лев / The Lion King (2019) UHD Remux 4K 2160p HDR H.265 Ukr/Eng | Sub Eng



«Король повернувся»



Жанр: драма, мультфільм, мюзикл, пригодницький, сімейний
Країна:США





Кінокомпанія: Walt Disney Pictures, Fairview Entertainment
Режисер:] Джон Фавро
Актори: Джеймс Ерл Джонс, Дональд Гловер, Чіветел Еджиофор, Джон Олівер, Джон Кані, Елфрі Вудард, Шахаді Райт Джозеф, Пенні Джонсон, Кіген-Майкл Кі


Сюжет:
В африканській савані народжується новий король. Левеня Сімба ідеалізує свого батька короля Муфасу і серйозно ставиться до своєї королівської долі. Але не всі в королівстві звірів раді появі Сімби на світ — брат Муфаси Шрам будує плани, як скинути короля і зайняти його місце. Сімба опиняється у вигнанні і за допомогою нових друзів Тимона та Пумби і давньої подруги Нали повинен стати дорослим левом і повернутися додому, щоб зайняти трон в царстві звірів.



Тривалість: 01:58:15
Якість: UHD Remux 4K 2160p

Відео:
кодек: H.265 (HEVC)
розмір кадру: 3840x2160
бітрейт: 54,3 Мб/с
бітова глибина: 10 біт
кольоровий простір: BT.2020 (HDR)

Аудіо # 1:
мова: українська
переклад: професійний дубльований | студія LeDoyen
кодек: -HD MA 5.1
бітрейт: 3949 кб/с
Інформація про дубляж
Аудіо # 2:
мова: українська
переклад: професійний дубльований | студія LeDoyen
кодек: 5.1
бітрейт: 1536 кб/с

Аудіо # 3:
мова: українська
переклад: професійний дубльований | студія LeDoyen
кодек: 5.1
бітрейт: 640 кб/с

Аудіо # 4:
мова: англійська
переклад: оригінал
кодек: 5.1
бітрейт: 640 кб/с

Аудіо # 5:
мова: англійська
переклад: оригінал
кодек: TrueHD + Atmos 7.1
бітрейт: 4929 кб/с

Субтитри: (Full, SDH)
мова: англійська
тип: програмні (м'які)
формат: *.srt


Збережено оригінальні розділи, як на Blu-ray.

Info
Код:
General
Complete name                            : The Lion King (2019) UHD Remux 4K 2160p HDR H.265 (HEVC) [UKR_ENG] [ViDeO_Hurtom].
Format                                   :
Format version                           : Version 4
File size                                : 54.5 GiB
Duration                                 : 1 h 58 min
Overall bit rate mode                    : Variable
Overall bit rate                         : 66.0 Mb/s
Movie name                               : The Lion King (2019) UHD Remux 4K 2160p HDR H.265 (HEVC) [UKR_ENG] [ViDeO_Hurtom]
Encoded date                             : UTC 2019-12-16 18:36:34
Writing application                      : v30.1.0 ('Forever And More') 64-bit
Writing library                          : libebml v1.3.6 + v1.4.9
Cover                                    : Yes
Attachments                              : cover.jpg

Video
ID                                       : 1
Format                                   : HEVC
Format/Info                              : High Efficiency Video Coding
Commercial name                          : HDR10
Format profile                           : Main [email protected]@High
Codec ID                                 : V_MPEGH/ISO/HEVC
Duration                                 : 1 h 58 min
Bit rate                                 : 54.3 Mb/s
Width                                    : 3 840 pixels
Height                                   : 2 160 pixels
Display aspect ratio                     : 16:9
Frame rate mode                          : Constant
Frame rate                               : 23.976 (24000/1001) FPS
Color space                              : YUV
Chroma subsampling                       : 4:2:0 (Type 2)
Bit depth                                : 10 bits
Bits/(Pixel*Frame)                       : 0.273
Stream size                              : 44.8 GiB (82%)
Title                                    : Remux.2160p.HDR.TeamHD by Silverok
Writing library                          : ATEME Titan File 3.9.0 (4.9.0.0)
Default                                  : Yes
Forced                                   : No
Color range                              : Limited
Color primaries                          : BT.2020
Transfer characteristics                 : PQ
Matrix coefficients                      : BT.2020 non-constant
Mastering display color primaries        : Display P3
Mastering display luminance              : min: 0.0001 cd/m2, max: 1000 cd/m2

Audio #1
ID                                       : 2
Format                                   : XLL
Format/Info                              : Digital Theater Systems
Commercial name                          : -HD Master Audio
Codec ID                                 : A_DTS
Duration                                 : 1 h 58 min
Bit rate mode                            : Variable
Bit rate                                 : 3 949 kb/s
Channel(s)                               : 6 channels
Channel layout                           : C L R Ls Rs LFE
Sampling rate                            : 48.0 kHz
Frame rate                               : 93.750 FPS (512 SPF)
Bit depth                                : 24 bits
Compression mode                         : Lossless
Stream size                              : 3.26 GiB (6%)
Title                                    : -HD MA, 3/2 (L,C,R,l,r) + LFE ch, ~3949 kbps
Language                                 : Ukrainian
Default                                  : Yes
Forced                                   : No

Audio #2
ID                                       : 3
Format                                   :
Format/Info                              : Digital Theater Systems
Codec ID                                 : A_DTS
Duration                                 : 1 h 58 min
Bit rate mode                            : Constant
Bit rate                                 : 1 509 kb/s
Channel(s)                               : 6 channels
Channel layout                           : C L R Ls Rs LFE
Sampling rate                            : 48.0 kHz
Frame rate                               : 93.750 FPS (512 SPF)
Bit depth                                : 24 bits
Compression mode                         : Lossy
Stream size                              : 1.25 GiB (2%)
Title                                    : , 3/2 (L,C,R,l,r) + LFE ch, ~1536 kbps
Language                                 : Ukrainian
Default                                  : No
Forced                                   : No

Audio #3
ID                                       : 4
Format                                   : AC-3
Format/Info                              : Audio Coding 3
Commercial name                          : Dolby Digital
Codec ID                                 : A_AC3
Duration                                 : 1 h 58 min
Bit rate mode                            : Constant
Bit rate                                 : 640 kb/s
Channel(s)                               : 6 channels
Channel layout                           : L R C LFE Ls Rs
Sampling rate                            : 48.0 kHz
Frame rate                               : 31.250 FPS (1536 SPF)
Bit depth                                : 16 bits
Compression mode                         : Lossy
Stream size                              : 541 MiB (1%)
Title                                    : , 3/2 (L,C,R,l,r) + LFE ch, ~640 kbps
Language                                 : Ukrainian
Service kind                             : Complete Main
Default                                  : No
Forced                                   : No

Audio #4
ID                                       : 5
Format                                   : AC-3
Format/Info                              : Audio Coding 3
Commercial name                          : Dolby Digital
Codec ID                                 : A_AC3
Duration                                 : 1 h 58 min
Bit rate mode                            : Constant
Bit rate                                 : 640 kb/s
Channel(s)                               : 6 channels
Channel layout                           : L R C LFE Ls Rs
Sampling rate                            : 48.0 kHz
Frame rate                               : 31.250 FPS (1536 SPF)
Bit depth                                : 16 bits
Compression mode                         : Lossy
Stream size                              : 541 MiB (1%)
Title                                    : , 3/2 (L,C,R,l,r) + LFE ch, ~640 kbps
Language                                 : English
Service kind                             : Complete Main
Default                                  : No
Forced                                   : No

Audio #5
ID                                       : 6
Format                                   : MLP FBA 16-ch
Format/Info                              : Meridian Lossless Packing FBA with 16-channel presentation
Commercial name                          : Dolby TrueHD with Dolby Atmos
Codec ID                                 : A_TRUEHD
Duration                                 : 1 h 58 min
Bit rate mode                            : Variable
Bit rate                                 : 4 929 kb/s
Maximum bit rate                         : 7 332 kb/s
Channel(s)                               : 8 channels
Channel layout                           : L R C LFE Ls Rs Lb Rb
Sampling rate                            : 48.0 kHz
Frame rate                               : 1 200.000 FPS (40 SPF)
Compression mode                         : Lossless
Stream size                              : 4.07 GiB (7%)
Title                                    : Atmos TrueHD 7.1, ~4929 kbps
Language                                 : English
Default                                  : No
Forced                                   : No
Number of dynamic objects                : 13
Bed channel count                        : 1 channel
Bed channel configuration                : LFE

Text #1
ID                                       : 7
Format                                   : UTF-8
Codec ID                                 : S_TEXT/UTF8
Codec ID/Info                            : UTF-8 Plain Text
Duration                                 : 1 h 46 min
Bit rate                                 : 150 b/s
Count of elements                        : 1370
Stream size                              : 117 KiB (0%)
Title                                    : Full
Language                                 : English
Default                                  : No
Forced                                   : No

Text #2
ID                                       : 8
Format                                   : UTF-8
Codec ID                                 : S_TEXT/UTF8
Codec ID/Info                            : UTF-8 Plain Text
Duration                                 : 1 h 52 min
Bit rate                                 : 58 b/s
Count of elements                        : 1705
Stream size                              : 47.6 KiB (0%)
Title                                    : SDH
Language                                 : English
Default                                  : No
Forced                                   : No

Menu
00:00:00.000                             : en:"Circle Of Life/Nants' Ingonyama"
00:04:50.499                             : en:"Life's Not Fair"
00:10:51.067                             : en:"Everything The Light Touches"
00:17:47.692                             : en:"I Just Can't Wait To Be King"
00:23:53.015                             : en:Elephant Graveyard
00:30:00.132                             : en:Under The Stars
00:33:05.066                             : en:"Be Prepared"
00:37:09.310                             : en:Stampede
00:43:42.912                             : en:Scar Takes Over
00:50:47.336                             : en:Timon And Pumbaa
00:55:02.716                             : en:"Hakuna Matata"
00:59:48.460                             : en:Scar's Kingdom
01:06:27.233                             : en:"Line Of Indifference"
01:14:32.093                             : en:"The Lion Sleeps Tonight"
01:18:26.410                             : en:"Can You Feel The Love Tonight"
01:23:07.900                             : en:"He Lives In You"
01:28:04.654                             : en:"Spirit"
01:33:10.877                             : en:Simba Confronts Scar
01:37:13.745                             : en:Battle For Pride Rock
01:44:39.190                             : en:The Rightful King
01:47:47.336                             : en:End Credits/"Never Too Late"

Скріншоти




Джерело:
Особиста оцінка: 10 - без зайвих вагань рекомендую всім!
Подяка пану Hanway за синхронізацію звуку.


Увага! Перед завантаженням переконайтесь, що ваш пристрій відтворення (та/або ПЗ) підтримує H.265 (HEVC)




Золотий реліз (завантажене не впливає на рейтинг)
 Трекер:    Зареєстрований   

Завантажити / скачати фільм українською



відео для новачків



 Зареєстрований:   2019-12-16 22:13
 Розмір:   54.54 GB 
 Оцінка фільму:   9.7/10 (Голосів: 36)
   
Інші релізи
matstick 
Новенький


З нами з: 31.08.17
Востаннє: 17.02.20
Повідомлень: 1

2019-11-20 15:04  
Кращого звуку ще не з'явилося?
killvaps 
Новенький


З нами з: 02.11.14
Востаннє: 16.02.20
Повідомлень: 2

2019-11-30 18:24  
Дякую за реліз. Можливо ви знаєте який потрібно плеєр використовувати на пк щоб 4к відео віддтворювалось без проблем?
Ютуб 4к працює без проблем, а тут саме з цим форматом який має фільм виникли проблеми, відео відтворюється з ривками.

igor911 
Модератор відео


З нами з: 18.01.08
Востаннє: 17.02.20
Повідомлень: 14106

2019-11-30 20:07  
killvaps, тут справа не стільки у великому розмірі кадру, як у підтримці HEVC. ПК має бути більш-менш новим (щоб мати його апаратну підтримку) або дуже потужним (CPU на рівні Intel Core i5 - i7), щоб нормально його декодувати. Плюс зверни увагу - тут бітрейт в кілька разів вищий за ютубівське 4к.
Gingеrbread 
VIP


З нами з: 01.07.19
Востаннє: 17.02.20
Повідомлень: 360

2019-12-16 21:43  
killvaps написано:

Дякую за реліз. Можливо ви знаєте який потрібно плеєр використовувати на пк щоб 4к відео віддтворювалось без проблем?
Ютуб 4к працює без проблем, а тут саме з цим форматом який має фільм виникли проблеми, відео відтворюється з ривками.

MPC і там треба вибрати кодер madvr, чи що воно таке, я не знаю

Anonymous 







2019-12-16 22:13  


16.12.2019 Роздачу оновлено


Замінив доріжку на якіснішу



NSCOriginal 
Новенький


З нами з: 17.06.16
Востаннє: 13.02.20
Повідомлень: 2

2020-01-12 08:59  
озвучення супер(нашим акторам шана!!!), графон супер, але, на мою думку, оригінал мульта краще.
Ваш часовий пояс: GMT + 2 Години

Нова тема   Відповісти