Король Лев / The Lion King (2019) UHD Remux 4K 2160p HDR H.265 Ukr/Eng | Sub Eng

Нові коментарі

Нова тема   Відповісти
Автор Повідомлення
Anonymous 







2019-10-12 00:31  


Король Лев / The Lion King (2019) UHD Remux 4K 2160p HDR H.265 Ukr/Eng | Sub Eng



Король Лев / The Lion King (2019) UHD Remux 4K 2160p HDR H.265 Ukr/Eng | Sub Eng



«Король повернувся»



Жанр: драма, мультфільм, мюзикл, пригодницький, сімейний
Країна:США





Кінокомпанія: Walt Disney Pictures, Fairview Entertainment
Режисер:] Джон Фавро
Актори: Джеймс Ерл Джонс, Дональд Гловер, Чіветел Еджиофор, Джон Олівер, Джон Кані, Елфрі Вудард, Шахаді Райт Джозеф, Пенні Джонсон, Кіген-Майкл Кі


Сюжет:
В африканській савані народжується новий король. Левеня Сімба ідеалізує свого батька короля Муфасу і серйозно ставиться до своєї королівської долі. Але не всі в королівстві звірів раді появі Сімби на світ — брат Муфаси Шрам будує плани, як скинути короля і зайняти його місце. Сімба опиняється у вигнанні і за допомогою нових друзів Тимона та Пумби і давньої подруги Нали повинен стати дорослим левом і повернутися додому, щоб зайняти трон в царстві звірів.



Тривалість: 01:58:15
Якість: UHD Remux 4K 2160p

Відео:
кодек: H.265 (HEVC)
розмір кадру: 3840x2160
бітрейт: 54,3 Мб/с
бітова глибина: 10 біт
кольоровий простір: BT.2020 (HDR)

Аудіо # 1:
мова: українська
переклад: професійний дубльований
кодек: 2.0
бітрейт: 192 кб/с

Аудіо # 2:
мова: англійська
переклад: оригінал
кодек: 5.1
бітрейт: 640 кб/с

Аудіо # 3:
мова: англійська
переклад: оригінал
кодек: TrueHD + Atmos 7.1
бітрейт: 4929 кб/с

Субтитри: (Full,SDH)
мова: англійська
тип: програмні (м'які)
формат: *.srt


Збережено оригінальні розділи, як на Blu-ray.

Info
Код:
General
Complete name                            : The Lion King (2019) UHD Remux 4K 2160p HDR H.265 (HEVC) [UKR_ENG] [ViDeO_Hurtom].
Format                                   :
Format version                           : Version 4
File size                                : 49.7 GiB
Duration                                 : 1 h 58 min
Overall bit rate mode                    : Variable
Overall bit rate                         : 60.1 Mb/s
Movie name                               : The Lion King (2019) UHD Remux 4K 2160p HDR H.265 (HEVC) [UKR_ENG] [ViDeO_Hurtom]
Encoded date                             : UTC 2019-10-11 16:42:30
Writing application                      : v30.1.0 ('Forever And More') 64-bit
Writing library                          : libebml v1.3.6 + v1.4.9
Cover                                    : Yes
Attachments                              : cover.jpg

Video
ID                                       : 1
Format                                   : HEVC
Format/Info                              : High Efficiency Video Coding
Commercial name                          : HDR10
Format profile                           : Main [email protected]@High
Codec ID                                 : V_MPEGH/ISO/HEVC
Duration                                 : 1 h 58 min
Bit rate                                 : 54.3 Mb/s
Width                                    : 3 840 pixels
Height                                   : 2 160 pixels
Display aspect ratio                     : 16:9
Frame rate mode                          : Constant
Frame rate                               : 23.976 (24000/1001) FPS
Color space                              : YUV
Chroma subsampling                       : 4:2:0 (Type 2)
Bit depth                                : 10 bits
Bits/(Pixel*Frame)                       : 0.273
Stream size                              : 44.8 GiB (90%)
Title                                    : Remux.2160p.HDR.TeamHD by Silverok
Writing library                          : ATEME Titan File 3.9.0 (4.9.0.0)
Default                                  : Yes
Forced                                   : No
Color range                              : Limited
Color primaries                          : BT.2020
Transfer characteristics                 : PQ
Matrix coefficients                      : BT.2020 non-constant
Mastering display color primaries        : Display P3
Mastering display luminance              : min: 0.0001 cd/m2, max: 1000 cd/m2

Audio #1
ID                                       : 2
Format                                   : AC-3
Format/Info                              : Audio Coding 3
Commercial name                          : Dolby Digital
Codec ID                                 : A_AC3
Duration                                 : 1 h 58 min
Bit rate mode                            : Constant
Bit rate                                 : 192 kb/s
Channel(s)                               : 2 channels
Channel layout                           : L R
Sampling rate                            : 48.0 kHz
Frame rate                               : 31.250 FPS (1536 SPF)
Bit depth                                : 16 bits
Compression mode                         : Lossy
Stream size                              : 162 MiB (0%)
Title                                    : , 2/0 (L,R) ch, ~192 kbps
Language                                 : Ukrainian
Service kind                             : Complete Main
Default                                  : Yes
Forced                                   : No

Audio #2
ID                                       : 3
Format                                   : AC-3
Format/Info                              : Audio Coding 3
Commercial name                          : Dolby Digital
Codec ID                                 : A_AC3
Duration                                 : 1 h 58 min
Bit rate mode                            : Constant
Bit rate                                 : 640 kb/s
Channel(s)                               : 6 channels
Channel layout                           : L R C LFE Ls Rs
Sampling rate                            : 48.0 kHz
Frame rate                               : 31.250 FPS (1536 SPF)
Bit depth                                : 16 bits
Compression mode                         : Lossy
Stream size                              : 541 MiB (1%)
Title                                    : , 3/2 (L,C,R,l,r) + LFE ch, ~640 kbps
Language                                 : English
Service kind                             : Complete Main
Default                                  : No
Forced                                   : No

Audio #3
ID                                       : 4
Format                                   : MLP FBA 16-ch
Format/Info                              : Meridian Lossless Packing FBA with 16-channel presentation
Commercial name                          : Dolby TrueHD with Dolby Atmos
Codec ID                                 : A_TRUEHD
Duration                                 : 1 h 58 min
Bit rate mode                            : Variable
Bit rate                                 : 4 929 kb/s
Maximum bit rate                         : 7 332 kb/s
Channel(s)                               : 8 channels
Channel layout                           : L R C LFE Ls Rs Lb Rb
Sampling rate                            : 48.0 kHz
Frame rate                               : 1 200.000 FPS (40 SPF)
Compression mode                         : Lossless
Stream size                              : 4.07 GiB (8%)
Title                                    : Atmos TrueHD 7.1, ~4929 kbps
Language                                 : English
Default                                  : No
Forced                                   : No
Number of dynamic objects                : 13
Bed channel count                        : 1 channel
Bed channel configuration                : LFE

Text #1
ID                                       : 5
Format                                   : UTF-8
Codec ID                                 : S_TEXT/UTF8
Codec ID/Info                            : UTF-8 Plain Text
Duration                                 : 1 h 46 min
Bit rate                                 : 150 b/s
Count of elements                        : 1370
Stream size                              : 117 KiB (0%)
Title                                    : Full
Language                                 : English
Default                                  : No
Forced                                   : No

Text #2
ID                                       : 6
Format                                   : UTF-8
Codec ID                                 : S_TEXT/UTF8
Codec ID/Info                            : UTF-8 Plain Text
Duration                                 : 1 h 52 min
Bit rate                                 : 58 b/s
Count of elements                        : 1705
Stream size                              : 47.6 KiB (0%)
Title                                    : SDH
Language                                 : English
Default                                  : No
Forced                                   : No

Menu
00:00:00.000                             : en:"Circle Of Life/Nants' Ingonyama"
00:04:50.499                             : en:"Life's Not Fair"
00:10:51.067                             : en:"Everything The Light Touches"
00:17:47.692                             : en:"I Just Can't Wait To Be King"
00:23:53.015                             : en:Elephant Graveyard
00:30:00.132                             : en:Under The Stars
00:33:05.066                             : en:"Be Prepared"
00:37:09.310                             : en:Stampede
00:43:42.912                             : en:Scar Takes Over
00:50:47.336                             : en:Timon And Pumbaa
00:55:02.716                             : en:"Hakuna Matata"
00:59:48.460                             : en:Scar's Kingdom
01:06:27.233                             : en:"Line Of Indifference"
01:14:32.093                             : en:"The Lion Sleeps Tonight"
01:18:26.410                             : en:"Can You Feel The Love Tonight"
01:23:07.900                             : en:"He Lives In You"
01:28:04.654                             : en:"Spirit"
01:33:10.877                             : en:Simba Confronts Scar
01:37:13.745                             : en:Battle For Pride Rock
01:44:39.190                             : en:The Rightful King
01:47:47.336                             : en:End Credits/"Never Too Late"

Скріншоти




Джерело: &
Особиста оцінка: 10 - без зайвих вагань рекомендую всім!


Увага! Перед завантаженням переконайтесь, що ваш пристрій відтворення (та/або ПЗ) підтримує H.265 (HEVC)




Золотий реліз (завантажене не впливає на рейтинг)
 Трекер:    Зареєстрований   

Завантажити / скачати фільм українською



відео для новачків



 Зареєстрований:   2019-10-12 00:33
 Розмір:   49.66 GB 
 Оцінка фільму:   9.5/10 (Голосів: 17)
   
Інші релізи
   Король Лев / The Lion King (2019) 1080p H.265 Ukr/Eng | Sub Eng -Star-Lord-  5 / 0   10.15 GB   2019-10-20 14:23 
   Король Лев / The Lion King (2019) Remux 1080p Ukr/Eng | Sub Eng antik_2008  21 / 3   27.82 GB   2019-10-12 19:05 
   Король Лев / The Lion King (2019) 1080p H.265 Ukr/Eng | Sub Eng antik_2008  53 / 2   7.36 GB   2019-10-12 17:21 
   Король Лев / The Lion King (2019) 720p Ukr/Eng | Sub Eng 11FrYkT  66 / 0   3.27 GB   2019-10-12 12:48 
   Король Лев / The Lion King (2019) 1080p Ukr/Eng | Sub Eng antik_2008  58 / 0   16.17 GB   2019-10-12 00:16 
   Король Лев / The Lion King (2019) antik_2008  54 / 2   1.88 GB   2019-10-11 19:36 
   Король Лев / The Lion King (2019) AVC Ukr/Eng | Sub Eng 11FrYkT  130 / 2   2.18 GB   2019-10-11 13:00 
Ваш часовий пояс: GMT + 2 Години

Нова тема   Відповісти