Всепереможне кохання / Аджай / Ajay / अजय (1996) AVC

Нові коментарі

Нова тема   Відповісти
Автор Повідомлення
Arsenfpu 
Відео Гуртом - фільмокрай
Відео Гуртом - фільмокрай


З нами з: 30.04.09
Востаннє: 18.10.19
Повідомлень: 6150

2019-10-11 19:07  
Всепереможне кохання / Аджай / Ajay / अजय (1996) AVC

Всепереможне кохання / Аджай / Ajay / अजय (1996) AVC


Жанр: екшн, драма, мелодрама, музичний
Країна: Індія



Кінокомпанія: Shree Krishna International
Режисер: Суніл Даршан
Актори: Сані Деол, Каоішма Капур, Суредже Оберої, Кіран Кумар.

Сюжет:
Простий сільський хлопець Аджай закохується в дочку багатого і всесильного Такура. У серці його дочки Рами спалахує взаємне почуття, але батько нічого не хоче чути про весілля. Щоб раз і назавжди прибрати з дороги неугодного нареченого, Такур вирішує заховати Аджая до в'язниці. Але любляче серце не втримати за гратами. Аджай здійснює втечу ...


Тривалість: 02:26:58
Якість:
Відео:
кодек:
розмір кадру: 1 024 х 432
бітрейт: 1 600 кб/с

Аудіо # 1:
мова: українська
переклад: багатоголосий закадровий КІТ
кодек: 2.0
бітрейт: 192 кб/с
Про файл
General
Unique ID : 73686289906095988978701600233200698816 (0x376F7695B92475D44EE801389ECA45C0)
Complete name : C:\Ajay (1996) AVC [Hurtom].
Format :
Format version : Version 4 / Version 2
File size : 1.84 GiB
Duration : 2 h 26 min
Overall bit rate : 1 794 kb/s
Movie name : Всепереможне кохання / Аджай / Ajay / अजय (1996)
Encoded date : UTC 2019-10-11 15:49:58
Writing application : v21.0.0 ('Tardigrades Will Inherit The Earth') 32-bit
Writing library : libebml v1.3.5 + v1.4.8
Cover : Yes
Attachments : cover.jpg

Video
ID : 1
Format : AVC
Format/Info : Advanced Video Codec
Format profile : [email protected]
Format settings, CABAC : Yes
Format settings, ReFrames : 4 frames
Codec ID : V_MPEG4/ISO/AVC
Duration : 2 h 26 min
Bit rate : 1 600 kb/s
Width : 1 024 pixels
Height : 432 pixels
Display aspect ratio : 2.40:1
Frame rate mode : Constant
Frame rate : 25.000 FPS
Color space : YUV
Chroma subsampling : 4:2:0
Bit depth : 8 bits
Scan type : Progressive
Bits/(Pixel*Frame) : 0.145
Stream size : 1.64 GiB (89%)
Writing library : core 157 r2935 545de2f
Encoding settings : cabac=1 / ref=3 / deblock=1:-1:-1 / analyse=0x3:0x113 / me=hex / subme=7 / psy=1 / psy_rd=1.00:0.15 / mixed_ref=1 / me_range=16 / chroma_me=1 / trellis=1 / 8x8dct=1 / cqm=0 / deadzone=21,11 / fast_pskip=1 / chroma_qp_offset=-3 / threads=12 / lookahead_threads=2 / sliced_threads=0 / nr=0 / decimate=1 / interlaced=0 / bluray_compat=0 / constrained_intra=0 / bframes=3 / b_pyramid=2 / b_adapt=1 / b_bias=0 / direct=1 / weightb=1 / open_gop=0 / weightp=2 / keyint=250 / keyint_min=25 / scenecut=40 / intra_refresh=0 / rc_lookahead=40 / rc=2pass / mbtree=1 / bitrate=1600 / ratetol=1.0 / qcomp=0.60 / qpmin=0 / qpmax=69 / qpstep=4 / cplxblur=20.0 / qblur=0.5 / ip_ratio=1.40 / aq=1:1.00
Default : Yes
Forced : No

Audio
ID : 2
Format : AC-3
Format/Info : Audio Coding 3
Mode extension : CM (complete main)
Format settings, Endianness : Big
Codec ID : A_AC3
Duration : 2 h 26 min
Bit rate mode : Constant
Bit rate : 192 kb/s
Channel(s) : 2 channels
Channel positions : Front: L R
Sampling rate : 48.0 kHz
Frame rate : 31.250 FPS (1536 spf)
Compression mode : Lossy
Stream size : 202 MiB (11%)
Title : КІТ
Language : Ukrainian
Default : Yes
Forced : No
Скріншоти














Джерело:
За матеріал для релізу дякую пану leicheman
Особиста оцінка: не дивився


Срібний реліз (на рейтинг впливає 50% завантаженого)
 Трекер:    Зареєстрований   

Завантажити / скачати фільм українською



відео для новачків



 Зареєстрований:   2019-10-11 19:07
 Розмір:   1.84 GB 
 Оцінка фільму:   10/10 (Голосів: 1)
   
Інші релізи
Ваш часовий пояс: GMT + 2 Години

Нова тема   Відповісти