Король Лев / The Lion King (2019) 1080p Ukr/Eng | Sub Eng

Нові коментарі

Нова тема   Відповісти
Автор Повідомлення
Anonymous 







2019-10-11 14:21  


Король Лев / The Lion King (2019) 1080p Ukr/Eng | Sub Eng



Король Лев / The Lion King (2019) 1080p Ukr/Eng | Sub Eng



«Король повернувся»



Жанр: драма, анімаційний, мюзикл, пригодницький, сімейний
Країна:США





Кінокомпанія: Walt Disney Pictures, Fairview Entertainment
Режисер:] Джон Фавро
Актори: Джеймс Ерл Джонс, Дональд Гловер, Чіветел Еджиофор, Джон Олівер, Джон Кані, Елфрі Вудард, Шахаді Райт Джозеф, Пенні Джонсон, Кіген-Майкл Кі


Сюжет:
В африканській савані народжується новий король. Левеня Сімба ідеалізує свого батька короля Муфасу і серйозно ставиться до своєї королівської долі. Але не всі в королівстві звірів раді появі Сімби на світ — брат Муфаси Шрам будує плани, як скинути короля і зайняти його місце. Сімба опиняється у вигнанні і за допомогою нових друзів Тимона та Пумби і давньої подруги Нали повинен стати дорослим левом і повернутися додому, щоб зайняти трон в царстві звірів.



Тривалість: 01:58:15
Якість: 1080p

Відео:
кодек:
розмір кадру: 1920x1080
бітрейт: 17,9 Мб/с

Аудіо # 1:
мова: українська
переклад: професійний дубльований | студія LeDoyen
кодек: 5.1
бітрейт: 1536 кб/с
Інформація про дубляж
Аудіо # 2:
мова: українська
переклад: професійний дубльований | студія LeDoyen
кодек: 5.1
бітрейт: 640 кб/с

Аудіо # 3:
мова: англійська
переклад: оригінал
кодек: 5.1
бітрейт: 1509 кб/с

Субтитри: (Full, SDH)
мова: англійська
тип: програмні (м'які)
формат: *.srt


Збережено оригінальні розділи, як на Blu-ray.

Info
Код:
General
Complete name                            : The Lion King (2019) 1080p [UKR, ENG] [Video_Hurtom].
Format                                   :
Format version                           : Version 4
File size                                : 17.8 GiB
Duration                                 : 1 h 58 min
Overall bit rate                         : 21.5 Mb/s
Movie name                               : The Lion King (2019) 1080p [UKR , ENG] [Video_Hurtom]
Encoded date                             : UTC 2019-12-16 21:10:51
Writing application                      : v30.1.0 ('Forever And More') 64-bit
Writing library                          : libebml v1.3.6 + v1.4.9
Cover                                    : Yes
Attachments                              : cover.jpg

Video
ID                                       : 1
Format                                   : AVC
Format/Info                              : Advanced Video Codec
Format profile                           : [email protected]
Format settings                          : CABAC / 4 Ref Frames
Format settings, CABAC                   : Yes
Format settings, RefFrames               : 4 frames
Codec ID                                 : V_MPEG4/ISO/AVC
Duration                                 : 1 h 58 min
Bit rate                                 : 17.9 Mb/s
Width                                    : 1 920 pixels
Height                                   : 1 080 pixels
Display aspect ratio                     : 16:9
Frame rate mode                          : Constant
Frame rate                               : 23.976 (24000/1001) FPS
Color space                              : YUV
Chroma subsampling                       : 4:2:0
Bit depth                                : 8 bits
Scan type                                : Progressive
Bits/(Pixel*Frame)                       : 0.360
Stream size                              : 14.8 GiB (83%)
Title                                    : MTeam
Writing library                          : core 157 r2938 2b00a84 [email protected] Mod
Encoding settings                        : cabac=1 / ref=4 / deblock=1:-3:-3 / analyse=0x3:0x133 / me=umh / subme=10 / psy=1 / psy_rd=1.05:0.00 / mixed_ref=1 / me_range=32 / chroma_me=1 / trellis=2 / 8x8dct=1 / cqm=0 / deadzone=21,11 / fast_pskip=0 / chroma_qp_offset=-2 / threads=12 / lookahead_threads=2 / sliced_threads=0 / nr=0 / decimate=0 / interlaced=0 / bluray_compat=0 / constrained_intra=0 / bframes=8 / b_pyramid=2 / b_adapt=2 / b_bias=0 / direct=3 / weightb=1 / open_gop=0 / weightp=2 / keyint=250 / keyint_min=24 / scenecut=40 / intra_refresh=0 / rc_lookahead=250 / rc=crf / mbtree=0 / crf=16.1 / qcomp=0.60 / qpmin=0 / qpmax=69 / qpstep=4 / vbv_maxrate=62500 / vbv_bufsize=78125 / crf_max=0.0 / nal_hrd=none / filler=0 / ip_ratio=1.30 / pb_ratio=1.20 / aq=3:0.80
Language                                 : English
Default                                  : Yes
Forced                                   : No
Color range                              : Limited
Color primaries                          : BT.709
Matrix coefficients                      : BT.709

Audio #1
ID                                       : 2
Format                                   :
Format/Info                              : Digital Theater Systems
Codec ID                                 : A_DTS
Duration                                 : 1 h 58 min
Bit rate mode                            : Constant
Bit rate                                 : 1 509 kb/s
Channel(s)                               : 6 channels
Channel layout                           : C L R Ls Rs LFE
Sampling rate                            : 48.0 kHz
Frame rate                               : 93.750 FPS (512 SPF)
Bit depth                                : 24 bits
Compression mode                         : Lossy
Stream size                              : 1.25 GiB (7%)
Title                                    : [Ukrainian] 5.1 @ 1536 kbps (Core)
Language                                 : Ukrainian
Default                                  : Yes
Forced                                   : No

Audio #2
ID                                       : 3
Format                                   : AC-3
Format/Info                              : Audio Coding 3
Commercial name                          : Dolby Digital
Codec ID                                 : A_AC3
Duration                                 : 1 h 58 min
Bit rate mode                            : Constant
Bit rate                                 : 640 kb/s
Channel(s)                               : 6 channels
Channel layout                           : L R C LFE Ls Rs
Sampling rate                            : 48.0 kHz
Frame rate                               : 31.250 FPS (1536 SPF)
Bit depth                                : 16 bits
Compression mode                         : Lossy
Stream size                              : 541 MiB (3%)
Title                                    : [Ukrainian] DD 5.1 @ 640 kbps
Language                                 : Ukrainian
Service kind                             : Complete Main
Default                                  : No
Forced                                   : No

Audio #3
ID                                       : 4
Format                                   :
Format/Info                              : Digital Theater Systems
Codec ID                                 : A_DTS
Duration                                 : 1 h 58 min
Bit rate mode                            : Constant
Bit rate                                 : 1 509 kb/s
Channel(s)                               : 6 channels
Channel layout                           : C L R Ls Rs LFE
Sampling rate                            : 48.0 kHz
Frame rate                               : 93.750 FPS (512 SPF)
Bit depth                                : 24 bits
Compression mode                         : Lossy
Stream size                              : 1.25 GiB (7%)
Title                                    : [ORIGINAL] 5.1 @ 1509 kbps (Core)
Language                                 : English
Default                                  : No
Forced                                   : No

Text #1
ID                                       : 5
Format                                   : UTF-8
Codec ID                                 : S_TEXT/UTF8
Codec ID/Info                            : UTF-8 Plain Text
Duration                                 : 1 h 46 min
Bit rate                                 : 50 b/s
Count of elements                        : 1369
Stream size                              : 39.1 KiB (0%)
Title                                    : Full
Language                                 : English
Default                                  : No
Forced                                   : No

Text #2
ID                                       : 6
Format                                   : UTF-8
Codec ID                                 : S_TEXT/UTF8
Codec ID/Info                            : UTF-8 Plain Text
Duration                                 : 1 h 52 min
Bit rate                                 : 58 b/s
Count of elements                        : 1705
Stream size                              : 47.6 KiB (0%)
Title                                    : SDH
Language                                 : English
Default                                  : Yes
Forced                                   : No

Menu
00:00:00.000                             : en:Chapter 01
00:04:50.499                             : en:Chapter 02
00:10:51.067                             : en:Chapter 03
00:17:47.692                             : en:Chapter 04
00:23:53.015                             : en:Chapter 05
00:30:00.132                             : en:Chapter 06
00:33:05.066                             : en:Chapter 07
00:37:09.310                             : en:Chapter 08
00:43:42.912                             : en:Chapter 09
00:50:47.336                             : en:Chapter 10
00:55:02.716                             : en:Chapter 11
00:59:48.460                             : en:Chapter 12
01:06:27.233                             : en:Chapter 13
01:14:32.093                             : en:Chapter 14
01:18:26.410                             : en:Chapter 15
01:23:07.900                             : en:Chapter 16
01:28:04.654                             : en:Chapter 17
01:33:10.877                             : en:Chapter 18
01:37:13.745                             : en:Chapter 19
01:44:39.190                             : en:Chapter 20
01:47:47.336                             : en:Chapter 21

Скріншоти







Джерело:
Особиста оцінка: 10 - без зайвих вагань рекомендую всім!
Подяка пану Hanway за синхронізацію звуку.



 Трекер:    Зареєстрований   

Завантажити / скачати фільм українською



відео для новачків



 Зареєстрований:   2019-12-17 00:29
 Розмір:   17.79 GB 
 Оцінка фільму:   9.6/10 (Голосів: 75)
   
Інші релізи
   Король Лев / The Lion King (2019) 1080p H.265 Ukr/Eng | Sub Eng -Star-Lord-  12 / 0   11.24 GB   2019-12-17 15:28 
   Король Лев / The Lion King (2019) Remux 1080p Ukr/Eng | Sub Eng antik_2008  5 / 0   32.7 GB   2019-12-17 00:30 
   Король Лев / The Lion King (2019) UHD Remux 4K 2160p HDR H.265 Ukr/Eng | Sub Eng antik_2008  5 / 0   54.54 GB   2019-12-16 23:13 
   Король Лев / The Lion King (2019) 1080p H.265 Ukr/Eng | Sub Eng antik_2008  8 / 1   8.97 GB   2019-12-16 21:30 
   Король Лев / The Lion King (2019) antik_2008  20 / 0   2.09 GB   2019-12-16 18:09 
   Король Лев / The Lion King (2019) AVC Ukr/Eng | Sub Eng 11FrYkT  19 / 0   2.44 GB   2019-12-16 17:19 
   Король Лев / The Lion King (2019) 720p Ukr/Eng | Sub Eng 11FrYkT  7 / 0   5.78 GB   2019-12-16 17:02 
IRONHIDE 
VIP


З нами з: 06.08.10
Востаннє: 26.09.20
Повідомлень: 279

2019-10-11 15:50  
Ходив два раза у кіно! Фільм на всі роки!!!
Silver Warden 
VIP


З нами з: 02.01.18
Востаннє: 27.09.20
Повідомлень: 305

2019-10-11 16:38  
Неочікувано! Дякую за реліз, нарешті можу подивитися українською.
bot 
робот


З нами з: 30.09.07
Востаннє: 26.05.05
Повідомлень: 25616

2019-10-11 17:27  
Тему перенесено з Мультфільми в HD до форуму Фільми в HD


kinaxem

Anonymous 







2019-10-12 00:17  
Оновив торент файл. Замінив відео на якісніше
Cerguk 
Свій


З нами з: 30.09.09
Востаннє: 26.09.20
Повідомлень: 106

2019-10-12 13:42  
Фільм шикардос ! Картинка бомба ! Звірі на вигляд наче живі. Лише позитивні враження від перегляду
hatak 
Поважний учасник


З нами з: 30.04.15
Востаннє: 26.09.20
Повідомлень: 169

2019-10-12 14:09  
Чудовий фільм, вартий перегляду для всіх вікових категорій. Теми сюжету торкатись не варто, оскільки він повністю відомий і практично повторює історію, викладену в оригінальному мультфільмі. Найцікавіше в цьому всьому, що в стару ідею вдихнули нове життя, і зробили це ідеально. Анімація захоплює і вражає своєю реалістичністю, правдоподібністю: від зовнішнього вигляду об’єктів природи до манери пересування тварин, способу бігу різних видів, а також сцени їхніх боїв. Все продумано до дрібниць і так само зображено. Дивився саме заради візуальних ефектів. Мабуть “Король лев” підняв планку якості “малювання” природи до такого рівня, що навряд чи її хтось найближчим часом перевершить. Ми вже дожили до того часу, коли намальоване місцями виглядає більш реалістично ніж насправді зняте на відео. Це складно сприйняти, але то вже сталось. Рімейк вдався. А в цілому гарна повчальна історія для юної аудиторії. Хоча мені зайвими здались елементи мюзіклу, коли тварини співають якихось невигадливих пісень. Без цього можна було б обійтись, але загальне враження не псує.
maleficmax 
Свій


З нами з: 18.04.12
Востаннє: 25.09.20
Повідомлень: 84

2019-11-02 21:45  
Який звук, панове?
Чому роздачу не видалено через те, що не вказано, звідки звук?

dimon-2018 
VIP


З нами з: 06.05.18
Востаннє: 27.09.20
Повідомлень: 491

2019-12-03 14:58  
Вітаю, чи планується доріжка 5.1.?
Anonymous 







2019-12-17 00:31  
16.12.2019 Роздачу оновлено


Замінив доріжку на якіснішу

Григорій Лахно 
Новенький


З нами з: 02.08.12
Востаннє: 25.09.20
Повідомлень: 10

2020-01-03 15:44  
maleficmax Підримую, елементів мюзиклу забагато, все крім оригінальних тем "Акуна матата" і пісні джунглівя я б прибрав, але в принципі, так і в мультику було. Зрештую історія ідеально перемальована з оригінальної картини. Сміюсь в голос з тих, хто розказує, що оригінал набагато краще. Це люди, для яких дитячі відчуття завджи будуть створювати ілюзію, що раніще було краще, смачніше і тд. Ті хто зараз вперше переглянули цю шикарну анімацію, наврядчи вже змодуть сприймати оригінал, та й не потрібно)))

Особисто мій "дорослий мозок", не сприймав, деякі неузгодженісті сюжету. По перше, Шрам, який був довгий час у владі та ситим, так і залишився худим, облізлим та змордованим - ну якось вже зовсім не відновився, не від'ївся) По друге, Сімба який жив все життя біля травоїдних і був веганом, без ніякої підводки різко став хижим та агресивним левом, який зміг дати бій практикучим хижакам)

Ваш часовий пояс: GMT + 2 Години

Нова тема   Відповісти