Гордість і пристрасть / The Pride and the Passion (1957) 1080p 2xUkr/Eng | Sub Eng

Нові коментарі

Нова тема   Відповісти
Автор Повідомлення
MakRA 
VIP


З нами з: 10.11.18
Востаннє: 28.01.20
Повідомлень: 699

2019-10-09 23:20  
Гордість і пристрасть / The Pride and the Passion (1957) 1080p 2xUkr/Eng | Sub Eng


Український постер:

Альтернативні постери:





Жанр: екшн, пригодницький, драма
Країна: США



Кінокомпанія: Stanley Kramer Productions
Режисер: Стенлі Крамер [Stanley Kramer]
Актори: Кері Грант [Cary Grant], Френк Сінатра [Frank Sinatra], Софі Лорен [Sophia Loren], Теодор Байкел [Theodore Bikel], Джон Венграф [John Wengraf], Джей Новелло [Jay Novello], Хосе Нієто [José Nieto], Карлос Ларанага [Carlos Larrañaga], Філіп Ван Зан [Philip Van Zandt], Пако Ел Лаберінто [Paco El Laberinto]

Сюжет:
Під час іспано-французької війни 1808—1813 років, відступаючі іспанські війська, які не в силах тягнути за собою величезну гармату, скидають її з найближчого урвища. Британці хочуть заволодіти цією потужною зброєю, тому посилають за гарматою морського капітана Ентоні Трамбала (Кері Грант). Та ватажок іспанських партизанів — швець Мігель (Френк Сінатра) має інші плани. Він хоче звільнити від французів рідне місто Авіла, яке оточене потужними фортечними стінами. Тому він обіцяє віддати гармату капітанові тільки після того, як він допоможе йому розбити нею грубезні мури міста...

Цікаві факти:

-Для зйомок у фільмі з дерева виготовили три величезні гармати, які тягнути по бездоріжжю було насправді дуже важко. Під час зйомок гармата створювала реальну загрозу для акторів і учасників масових сцен.
-Спочатку планувалося, що роль Хуани повинна була грати Ава Гарднер, пізніше Джина Лоллобриджида. Однак через різні перешкоди цього не сталося і Карло Понті намовив Стенлі Крамера взяти на цю роль Софію Лорен. Для неї це був перший фільм англійською мовою, якою вона ледве могла говорити. Щоб поліпшити свої мовні навички, Софія Лорен пройшла прискорений курс англійської мови.
-Сцена величної релігійної церемонії була знята в знаменитій базиліці монастиря Ескоріал.



Тривалість: 02:11:47
Якість: 1080p
Відео:
кодек:
розмір кадру: 1920 х 1080
бітрейт: 8,5 Mб/с

Аудіо # 1:
мова: українська
переклад: багатоголосий закадровий
кодек: 2.0
бітрейт: 192 кб/с

Аудіо # 2:
мова: українська
переклад: двоголосий закадровий
кодек: 2.0
бітрейт: 192 кб/с

Аудіо # 3:
мова: англійська
переклад: оригінал
кодек: 2.0
бітрейт: 192 кб/с

Аудіо # 4:
мова: англійська
переклад: оригінал
кодек:
бітрейт: 1032 кб/с

Субтитри:
мова: англійська
тип: програмні (м'які)
формат: *.srt

Збережено оригінальні розділи, як на Blu-ray.
Info
General
Unique ID : 73376474852548009165914537523433195424 (0x3733CB85FC587E463C460223351447A0)
Complete name : H:\The Pride and the Passion (1957) 1080p 2хUkrEng Sub Eng [Hurtom].
Format :
Format version : Version 4
File size : 9.27 GiB
Duration : 2 h 11 min
Overall bit rate mode : Variable
Overall bit rate : 10.1 Mb/s
Movie name : Гордість і пристрасть / The Pride and the Passion (1957) 1080p 2хUkr/Eng | Sub Eng [Hurtom]
Encoded date : UTC 2019-10-08 23:18:52
Writing application : v25.0.0 ('Prog Noir') 64-bit
Writing library : libebml v1.3.6 + v1.4.9
Cover : Yes
Attachments : cover.jpg

Video
ID : 1
Format : AVC
Format/Info : Advanced Video Codec
Format profile : [email protected]
Format settings : CABAC / 4 Ref Frames
Format settings, CABAC : Yes
Format settings, Reference fra : 4 frames
Codec ID : V_MPEG4/ISO/AVC
Duration : 2 h 11 min
Bit rate : 8 460 kb/s
Width : 1 920 pixels
Height : 1 080 pixels
Display aspect ratio : 16:9
Frame rate mode : Constant
Frame rate : 23.976 (24000/1001) FPS
Color space : YUV
Chroma subsampling : 4:2:0
Bit depth : 8 bits
Scan type : Progressive
Bits/(Pixel*Frame) : 0.170
Stream size : 7.79 GiB (84%)
Title : The Pride and the Passion (1957) 1080p 2хUkr/Eng | Sub Eng [Hurtom]
Writing library : core 152 r2851 ba24899
Encoding settings : cabac=1 / ref=4 / deblock=1:-3:-3 / analyse=0x3:0x113 / me=umh / subme=8 / psy=1 / psy_rd=1.00:0.25 / mixed_ref=1 / me_range=24 / chroma_me=1 / trellis=1 / 8x8dct=1 / cqm=0 / deadzone=21,11 / fast_pskip=1 / chroma_qp_offset=-4 / threads=30 / lookahead_threads=5 / sliced_threads=0 / nr=0 / decimate=1 / interlaced=0 / bluray_compat=0 / constrained_intra=0 / bframes=3 / b_pyramid=2 / b_adapt=1 / b_bias=0 / direct=3 / weightb=1 / open_gop=0 / weightp=2 / keyint=240 / keyint_min=24 / scenecut=40 / intra_refresh=0 / rc_lookahead=50 / rc=2pass / mbtree=1 / bitrate=8460 / ratetol=1.0 / qcomp=0.60 / qpmin=0 / qpmax=69 / qpstep=4 / cplxblur=20.0 / qblur=0.5 / ip_ratio=1.40 / aq=1:0.75
Language : Ukrainian
Default : Yes
Forced : Yes

Audio #1
ID : 2
Format : AC-3
Format/Info : Audio Coding 3
Commercial name : Dolby Digital
Codec ID : A_AC3
Duration : 2 h 11 min
Bit rate mode : Constant
Bit rate : 192 kb/s
Channel(s) : 2 channels
Channel layout : L R
Sampling rate : 48.0 kHz
Frame rate : 31.250 FPS (1536 SPF)
Bit depth : 16 bits
Compression mode : Lossy
Stream size : 181 MiB (2%)
Title : MVO [AMC] 2.0
Language : Ukrainian
Service kind : Complete Main
Default : Yes
Forced : Yes

Audio #2
ID : 3
Format : AC-3
Format/Info : Audio Coding 3
Commercial name : Dolby Digital
Codec ID : A_AC3
Duration : 2 h 11 min
Bit rate mode : Constant
Bit rate : 192 kb/s
Channel(s) : 2 channels
Channel layout : L R
Sampling rate : 48.0 kHz
Frame rate : 31.250 FPS (1536 SPF)
Bit depth : 16 bits
Compression mode : Lossy
Stream size : 181 MiB (2%)
Title : DVO [ENTER] 2.0
Language : Ukrainian
Service kind : Complete Main
Default : No
Forced : No

Audio #3
ID : 4
Format : AC-3
Format/Info : Audio Coding 3
Commercial name : Dolby Digital
Codec ID : A_AC3
Duration : 2 h 11 min
Bit rate mode : Constant
Bit rate : 192 kb/s
Channel(s) : 2 channels
Channel layout : L R
Sampling rate : 48.0 kHz
Frame rate : 31.250 FPS (1536 SPF)
Bit depth : 16 bits
Compression mode : Lossy
Stream size : 181 MiB (2%)
Title : Original 2.0
Language : English
Service kind : Complete Main
Default : No
Forced : No

Audio #4
ID : 5
Format :
Format/Info : Free Lossless Audio Codec
Codec ID : A_FLAC
Duration : 2 h 11 min
Bit rate mode : Variable
Bit rate : 1 032 kb/s
Channel(s) : 2 channels
Channel layout : L R
Sampling rate : 48.0 kHz
Frame rate : 11.719 FPS (4096 SPF)
Bit depth : 24 bits
Compression mode : Lossless
Stream size : 973 MiB (10%)
Title : Original 2.0
Writing library : libFLAC 1.2.1 (UTC 2007-09-17)
Language : English
Default : No
Forced : No

Text
ID : 6
Format : UTF-8
Codec ID : S_TEXT/UTF8
Codec ID/Info : UTF-8 Plain Text
Duration : 2 h 7 min
Bit rate : 25 b/s
Count of elements : 628
Stream size : 23.9 KiB (0%)
Title : Eng (Full)
Language : English
Default : No
Forced : No

Menu
00:00:00.000 : en:00:00:00.000
00:00:10.928 : en:00:00:10.928
00:15:13.830 : en:00:15:13.830
00:32:07.092 : en:00:32:07.092
00:48:23.442 : en:00:48:23.442
01:05:07.862 : en:01:05:07.862
01:24:38.657 : en:01:24:38.657
01:41:49.979 : en:01:41:49.979
01:58:43.241 : en:01:58:43.241
02:11:57.952 : en:02:11:57.952
Скріншоти
Джерело: &
За українські доріжки дякую: п. Sando7 (запис звуку з каналу АМС), п. akon111 і п. Givi (за доріжку №2)
За українізований постер дякую п. Givi_мол.
Особиста оцінка: 8 - мені сподобалося


Срібний реліз (на рейтинг впливає 50% завантаженого)
 Трекер:    Зареєстрований   

Завантажити / скачати фільм українською



відео для новачків



 Зареєстрований:   2019-10-09 23:20
 Розмір:   9.27 GB 
 Оцінка фільму:   10/10 (Голосів: 6)
   
Ваш часовий пояс: GMT + 2 Години

Нова тема   Відповісти