Зоряні війни. Рух опору / Star Wars Resistance (Сезон 1) (2018) 1080p Ukr/Eng

Нові коментарі

Нова тема   Відповісти
Автор Повідомлення
sergiyko.5 
Забанено
Забанено


З нами з: 25.02.16
Востаннє: 29.10.20
Повідомлень: 3648

2019-10-09 15:28  
Всі одноіменні релізи на трекері

Зоряні війни. Рух опору / Star Wars Resistance (Сезон 1) (2018) 1080p Ukr/Eng


Зоряні війни. Рух опору / Star Wars Resistance (Сезон 1) (2018) 1080p Ukr/Eng

Жанр: фантастика, екшн
Країна: США
Кінокомпанія: Lucasfilm Ltd, DisneyXD
Режисер: Емі Бет Хрістенсон
Актори: Крістофер Шон, Боббі Мойніхен, Сьюзі МакГрат, Скотт Лоуренс, Мірна Веласко, Джош Бренер, Дональд Фейсон, Джим Раш

Сюжет:
Події серіалу матимуть місце за кілька років до подій фільму Зоряні війни: Пробудження Сили. Серіал розповість про пілота Казуда Ксіоно, якого найняв Опір, щоб шпигувати за зростаючою загрозою Верховного Порядку.




Дата світової прем'єри: 07 жовтня 2018 року
Дата української прем'єри: 08 жовтня 2019 року


Тривалість: 1 серія: 22:30 (цілком серій: 20 з 20)
Якість:

Відео: кодек: розмір кадру: 1920 х 1080 бітрейт: 5000 кб/с
Аудіо # 1: мова: українська переклад: професійний дубльований кодек: 2.0 бітрейт: 256 кб/с
Озвучення: НЛО-ТБ
Аудіо # 2: мова: англійська переклад: оригінал кодек: 5.1 бітрейт: 384 кб/с
Перелік серій
01. The Recruit
02. The Triple Dark
03. Fuel for the Fire
04. The High Tower
05. The Children from Tehar
06. Signal from Sector Six
07. Synara's Score
08. The Platform Classic
09. Secrets and Holograms
10. Station Theta Black
11. Bibo
12. Dangerous Business
13. The Doza Dilemma
14. The First Order Occupation
15. The New Trooper
16. The Core Problem
17. The Disappeared
18. Descent
19. No Escape: Part 1
20. No Escape: Part 2
Про файл:
General
Unique ID : 98481546393904108016994506156334347767 (0x4A16DB1D5FAF0385B1E8D0F010FF75F7)
Complete name : D:\Documents\Torrents\MULTSER\Star Wars Resistance S01 1080p \S01E02.The.Triple.Dark.1080p..
Format :
Format version : Version 4
File size : 899 MiB
Duration : 22 min 6 s
Overall bit rate : 5 686 kb/s
Movie name : Star Wars Resistance S01 1080p by sergiyko
Encoded date : UTC 2019-10-09 12:11:57
Writing application : v36.0.0 ('Is That Jazz?') 64-bit
Writing library : libebml v1.3.9 + v1.5.2

Video
ID : 1
Format : AVC
Format/Info : Advanced Video Codec
Format profile : [email protected]
Format settings : CABAC / 4 Ref Frames
Format settings, CABAC : Yes
Format settings, Reference : 4 frames
Codec ID : V_MPEG4/ISO/AVC
Duration : 22 min 6 s
Bit rate : 5 044 kb/s
Width : 1 920 pixels
Height : 1 080 pixels
Display aspect ratio : 16:9
Frame rate mode : Constant
Frame rate : 23.976 (24000/1001) FPS
Color space : YUV
Chroma subsampling : 4:2:0
Bit depth : 8 bits
Scan type : Progressive
Bits/(Pixel*Frame) : 0.101
Stream size : 798 MiB (89%)
Title : S01E02.The.Triple.Dark
Language : English
Default : Yes
Forced : No
Color range : Limited
Color primaries : BT.709
Transfer characteristics : BT.709
Matrix coefficients : BT.709

Audio #1
ID : 2
Format : AC-3
Format/Info : Audio Coding 3
Commercial name : Dolby Digital
Codec ID : A_AC3
Duration : 22 min 6 s
Bit rate mode : Constant
Bit rate : 256 kb/s
Channel(s) : 2 channels
Channel layout : L R
Sampling rate : 48.0 kHz
Frame rate : 31.250 FPS (1536 SPF)
Bit depth : 16 bits
Compression mode : Lossy
Stream size : 40.5 MiB (5%)
Title : DUB 2.0ch | NLO TV
Language : Ukrainian
Service kind : Complete Main
Default : Yes
Forced : Yes

Audio #2
ID : 3
Format : AC-3
Format/Info : Audio Coding 3
Commercial name : Dolby Digital
Codec ID : A_AC3
Duration : 22 min 6 s
Bit rate mode : Constant
Bit rate : 384 kb/s
Channel(s) : 6 channels
Channel layout : L R C LFE Ls Rs
Sampling rate : 48.0 kHz
Frame rate : 31.250 FPS (1536 SPF)
Bit depth : 16 bits
Compression mode : Lossy
Stream size : 60.7 MiB (7%)
Title : Original DD5.1
Language : English
Service kind : Complete Main
Default : No
Forced : No
Скріншоти:


Запис/зведення: sergiyko


Бронзовий реліз (на рейтинг впливає 75% завантаженого)
 Трекер:    Зареєстрований   

Завантажити / скачати мультфільм українською



відео для новачків



 Зареєстрований:   2019-10-25 13:08
 Розмір:   18.45 GB 
 Оцінка мультсеріалу:   10/10 (Голосів: 10)
   
sergiyko.5 
Забанено
Забанено


З нами з: 25.02.16
Востаннє: 29.10.20
Повідомлень: 3648

2019-10-25 13:09  
Додав всі серії до повного сезону.

Приємного перегляду!

TeronUA 
VIP


З нами з: 13.02.09
Востаннє: 22.04.21
Повідомлень: 416

2020-03-20 23:46  
sergiyko.5
А чи є другий сезон з українським перекладом?)

Ваш часовий пояс: GMT + 2 Години

Нова тема   Відповісти