Проблема з кодуванням.

Нові коментарі

Нова тема   Відповісти
Автор Повідомлення
leicheman 
Відео Гуртом - фільмокрай
Відео Гуртом - фільмокрай


З нами з: 03.07.14
Востаннє: 21.10.19
Повідомлень: 4087

2019-10-09 12:26  
Доброго дня, допоможіть розібратися, як бути.
Маємо от такий ремукс серій Вокеар Техаськаого рейнджера
МІ
Video
ID : 1
Format : MPEG Video
Format version : Version 2
Format profile : [email protected]
Format settings : CustomMatrix / BVOP
Format settings, BVOP : Yes
Format settings, Matrix : Custom
Format settings, GOP : Variable
Codec ID : V_MPEG2
Codec ID/Info : MPEG 1 or 2 Video
Duration : 46 min 15 s
Bit rate mode : Variable
Bit rate : 4 990 kb/s
Maximum bit rate : 9 800 kb/s
Width : 720 pixels
Height : 480 pixels
Display aspect ratio : 4:3
Frame rate mode : Variable
Frame rate : 24.000 FPS
Original frame rate : 23.976 (24000/1001) FPS
Color space : YUV
Chroma subsampling : 4:2:0
Bit depth : 8 bits
Scan type : Progressive
Scan order : 2:3 Pulldown
Compression mode : Lossy
Bits/(Pixel*Frame) : 0.602
Time code of first frame : 00:59:59;00
Time code source : Group of pictures header
Stream size : 1.61 GiB (93%)
Language : English
Default : No
Forced : No
Є звук з толоки, у 25 фпс, я його переганяю у 23.976, але при кодуванні серії ремуксу, вона повністю заганяється у 24фпс і укр звук та англ місцями розсинхронений виходить (уремуксі обидві доріжки впорядку) то ж питання. Як мені правильно ріпнути цю серію, щоб не було розсинхрону? Перегонка укр звуку у 24фпс не допомагає, там вилазить ще страшніший розсинхрон.

Також проблема і з такою серією, де не 24, а 23.976 та 29.970
МІ
Video
ID : 1
Format : MPEG Video
Format version : Version 2
Format profile : [email protected]
Format settings : CustomMatrix / BVOP
Format settings, BVOP : Yes
Format settings, Matrix : Custom
Format settings, GOP : Variable
Codec ID : V_MPEG2
Codec ID/Info : MPEG 1 or 2 Video
Duration : 1 h 34 min
Bit rate mode : Variable
Bit rate : 4 985 kb/s
Maximum bit rate : 9 800 kb/s
Width : 720 pixels
Height : 480 pixels
Display aspect ratio : 4:3
Frame rate mode : Variable
Frame rate : 23.976 (23976/1000) FPS
Original frame rate : 29.970 (30000/1001) FPS
Color space : YUV
Chroma subsampling : 4:2:0
Bit depth : 8 bits
Compression mode : Lossy
Bits/(Pixel*Frame) : 0.602
Time code of first frame : 00:59:59;00
Time code source : Group of pictures header
Stream size : 3.29 GiB (93%)
Language : English
Default : No
Forced : No
sergiyko.5 
VIP


З нами з: 25.02.16
Востаннє: 21.10.19
Повідомлень: 2687

2019-10-09 12:30  
Треба кодувати відео без зміни фпс, перевірити англійську доріжку на розсинрон після ріпування, а українське аудіо зводити, щоб не було розсинхрону.
leicheman 
Відео Гуртом - фільмокрай
Відео Гуртом - фільмокрай


З нами з: 03.07.14
Востаннє: 21.10.19
Повідомлень: 4087

2019-10-09 12:32  
sergiyko.5 написано:
Треба кодувати відео без зміни фпс

Так воно так і стоїть, без зміни фпс.
sergiyko.5 написано:
перевірити англійську доріжку на розсинрон після ріпування

вона також, як і укр. з розсинхроном пілся ріпування.
sergiyko.5 написано:
а українське аудіо зводити, щоб не було розсинхрону

вона підходить добре, і нема розсинхрону до кодування на ремуксі, а проблеми після ріпування.
sergiyko.5 
VIP


З нами з: 25.02.16
Востаннє: 21.10.19
Повідомлень: 2687

2019-10-09 12:51  
до написано:
Frame rate : 24.000 FPS
Original frame rate : 23.976 (24000/1001) FPS


після написано:
Frame rate : 23.976 (23976/1000) FPS
Original frame rate : 29.970 (30000/1001) FPS


Ось тут криється розгадка, треба кодувати з частотою 24.000 FPS

Додано через 1 хвилину 49 секунд:

Або 23.976 а при муксуванні виставити 24.000 в MKVToolNix GUI
підпільник 
VIP


З нами з: 11.04.12
Востаннє: 21.10.19
Повідомлень: 318

2019-10-09 12:57  
leicheman написано:
і нема розсинхрону до кодування

а якшо перезбирать без перекодування? не варіант?

у мну був недавно розсинхрон. але там тільки звук перекодовувався. а візія лишалась. розсинхрон - випереджання на пів хвилини
на початку і падав десь в нуль до кінця. пофіксив копіюванням і вставлянням пустого місця на початку.
leicheman 
Відео Гуртом - фільмокрай
Відео Гуртом - фільмокрай


З нами з: 03.07.14
Востаннє: 21.10.19
Повідомлень: 4087

2019-10-09 13:01  
sergiyko.5 написано:

Ось тут криється розгадка, треба кодувати з частотою 24.000 FPS

Додано через 1 хвилину 49 секунд:

Або 23.976 а при муксуванні виставити 24.000 в MKVToolNix GUI


leicheman написано:
при кодуванні серії ремуксу, вона повністю заганяється у 24фпс


leicheman написано:
Перегонка укр звуку у 24фпс не допомагає


примусово у мквтул поставити фпс теж не допомагає, є лигкий розсинхрон.
sergiyko.5 
VIP


З нами з: 25.02.16
Востаннє: 21.10.19
Повідомлень: 2687

2019-10-09 14:30  
ви перекодували з частотою Original frame rate : 29.970 (30000/1001) FPS
Треба перекодовувати

Додано через 36 хвилин 16 секунд:

Відріжте шмат ремуксу і з різними налаштуваннями кодуйте до отримання потрібного результату.
Neytreenor 
Відео Гуртом - запис з ТБ
Відео Гуртом - запис з ТБ


З нами з: 03.04.11
Востаннє: 21.10.19
Повідомлень: 2138

2019-10-09 14:45  
Кодування взагалі не має змінювати тривалість/швидкість відео незалежно від того, який фпс виставлено, хоч 10, хоч 50. Підозрюю, що при кодуванні просто не так як треба фраховується флаг зміни фпс у відео і воно повертається до рідної швидкості (при 23.976). Я б сказав, що треба перекодувати у 23.976 фпс і потім виставити примусово 24 фпс для відео. А ще краще перемуксувати ремукс, прибравши зміну фпс (буде розсинхрон), перекодувати так (досі розсинхрон), перезібрати, виставивши примусово фпс 24 для відео (має бути ок).
Ваш часовий пояс: GMT + 2 Години

Нова тема   Відповісти