Полярний Експрес / The Polar Express (2004) AVC 2xUkr/Eng | Sub Ukr/Eng

Нові коментарі

Нова тема   Відповісти
Автор Повідомлення
Arsenfpu 
Відео Гуртом - фільмокрай
Відео Гуртом - фільмокрай


З нами з: 30.04.09
Востаннє: 01.04.20
Повідомлень: 6656

2019-10-08 22:14  
Полярний Експрес / The Polar Express (2004) AVC 2xUkr/Eng | Sub Ukr/Eng

Полярний Експрес / The Polar Express (2004) AVC 2xUkr/Eng | Sub Ukr/Eng


Жанр: анімація, сімейний, пригодницький
Країна: США



Кінокомпанія: Castle Rock Entertainment, Shangri-La Entertainment, Playtone
Режисер: Роберт Земекіс
Ролі озвучують: Том Хенкс, Леслі Хартер Земекіс, Едді Дизен, Нона М. Гайї, Пітер Сколарі , Брендан Кінг, Енді Пеллик, Джош Елі

Сюжет:
Це історія про хлопчика, що сумнівається в існуванні Санта-Клауса. Потрапивши на таємничий "Полярний експрес", що прямує до Північного Полюса, він залишає позаду всі свої сумніви. І поки Різдвяна ніч опускається на сплячий світ, пасажири швидкісного потягу поспішають у Північний Полюс, зустрічаючи на своєму шляху пригоди та небезпеки, що підстерігають їх в темних лісах, зловісних горах і крижаній тундрі.


Тривалість: 01:39:56
Якість:
Відео:
кодек:
розмір кадру: 1 024 х 416
бітрейт: 2 499 кб/с

Аудіо # 1:
мова: українська
переклад: багатоголосий закадровий
кодек: 2.0
бітрейт: 192 кб/с

Аудіо # 2:
мова: українська
переклад: багатоголосий закадровий (з 5.1)
кодек: 2.0
бітрейт: 192 кб/с

Аудіо # 3:
мова: англійська
переклад: оригінал
кодек: 2.0
бітрейт: 192 кб/с

Субтитри:
мова: українська
тип: програмні (м'які)
формат: *.srt

Субтитри:
мова: англійська
тип: програмні (м'які)
формат: *.srt
Про файл
General
Unique ID : 220644459609968256038679109790390889697 (0xA5FE93C23D1D50D86679D0A084952CE1)
Complete name : C:\The Polar Express (2004) [2xUkr,Eng] AVC [Hurtom].
Format :
Format version : Version 4 / Version 2
File size : 2.16 GiB
Duration : 1 h 39 min
Overall bit rate : 3 087 kb/s
Movie name : Полярний Експрес / The Polar Express (2004)
Encoded date : UTC 2019-10-08 18:26:24
Writing application : v21.0.0 ('Tardigrades Will Inherit The Earth') 32-bit
Writing library : libebml v1.3.5 + v1.4.8
Cover : Yes
Attachments : cover.jpg

Video
ID : 1
Format : AVC
Format/Info : Advanced Video Codec
Format profile : [email protected]
Format settings, CABAC : Yes
Format settings, ReFrames : 4 frames
Codec ID : V_MPEG4/ISO/AVC
Duration : 1 h 39 min
Bit rate : 2 499 kb/s
Width : 1 024 pixels
Height : 416 pixels
Display aspect ratio : 2.462
Frame rate mode : Constant
Frame rate : 23.976 (24000/1001) FPS
Color space : YUV
Chroma subsampling : 4:2:0
Bit depth : 8 bits
Scan type : Progressive
Bits/(Pixel*Frame) : 0.245
Stream size : 1.74 GiB (81%)
Writing library : core 157 r2935 545de2f
Encoding settings : cabac=1 / ref=3 / deblock=1:-1:-1 / analyse=0x3:0x113 / me=hex / subme=7 / psy=1 / psy_rd=1.00:0.15 / mixed_ref=1 / me_range=16 / chroma_me=1 / trellis=1 / 8x8dct=1 / cqm=0 / deadzone=21,11 / fast_pskip=1 / chroma_qp_offset=-3 / threads=12 / lookahead_threads=2 / sliced_threads=0 / nr=0 / decimate=1 / interlaced=0 / bluray_compat=0 / constrained_intra=0 / bframes=3 / b_pyramid=2 / b_adapt=1 / b_bias=0 / direct=1 / weightb=1 / open_gop=0 / weightp=2 / keyint=240 / keyint_min=23 / scenecut=40 / intra_refresh=0 / rc_lookahead=40 / rc=2pass / mbtree=1 / bitrate=2499 / ratetol=1.0 / qcomp=0.60 / qpmin=0 / qpmax=69 / qpstep=4 / cplxblur=20.0 / qblur=0.5 / ip_ratio=1.40 / aq=1:1.00
Default : Yes
Forced : No

Audio #1
ID : 2
Format : AC-3
Format/Info : Audio Coding 3
Mode extension : CM (complete main)
Format settings, Endianness : Big
Codec ID : A_AC3
Duration : 1 h 39 min
Bit rate mode : Constant
Bit rate : 192 kb/s
Channel(s) : 2 channels
Channel positions : Front: L R
Sampling rate : 48.0 kHz
Frame rate : 31.250 FPS (1536 spf)
Compression mode : Lossy
Delay relative to video : 2 s 0 ms
Stream size : 137 MiB (6%)
Title : Інтер
Language : Ukrainian
Default : Yes
Forced : Yes

Audio #2
ID : 3
Format : AC-3
Format/Info : Audio Coding 3
Mode extension : CM (complete main)
Format settings, Endianness : Big
Codec ID : A_AC3
Duration : 1 h 39 min
Bit rate mode : Constant
Bit rate : 192 kb/s
Channel(s) : 2 channels
Channel positions : Front: L R
Sampling rate : 48.0 kHz
Frame rate : 31.250 FPS (1536 spf)
Compression mode : Lossy
Stream size : 137 MiB (6%)
Title : ICTV
Language : Ukrainian
Default : No
Forced : No

Audio #3
ID : 4
Format : AC-3
Format/Info : Audio Coding 3
Mode extension : CM (complete main)
Format settings, Endianness : Big
Codec ID : A_AC3
Duration : 1 h 39 min
Bit rate mode : Constant
Bit rate : 192 kb/s
Channel(s) : 2 channels
Channel positions : Front: L R
Sampling rate : 48.0 kHz
Frame rate : 31.250 FPS (1536 spf)
Compression mode : Lossy
Stream size : 137 MiB (6%)
Language : English
Default : No
Forced : No

Text #1
ID : 5
Format : UTF-8
Codec ID : S_TEXT/UTF8
Codec ID/Info : UTF-8 Plain Text
Duration : 1 h 38 min
Bit rate : 49 b/s
Count of elements : 824
Stream size : 35.9 KiB (0%)
Language : Ukrainian
Default : Yes
Forced : No

Text #2
ID : 6
Format : PGS
Muxing mode : zlib
Codec ID : S_HDMV/PGS
Codec ID/Info : Picture based subtitle format used on BDs/HD-DVDs
Duration : 1 h 39 min
Bit rate : 21.2 kb/s
Count of elements : 1872
Stream size : 15.0 MiB (1%)
Language : English
Default : No
Forced : No
Скріншоти














Джерело:
За доріжку від Інтера дякую п. Premer_Joker, xslim
За доріжку від ICTV дякую пану Merdiff
Особиста оцінка: не дивився


Срібний реліз (на рейтинг впливає 50% завантаженого)
 Трекер:    Зареєстрований   

Завантажити / скачати мультфільм українською



відео для новачків



 Зареєстрований:   2019-10-08 22:14
 Розмір:   2.16 GB 
 Оцінка мультфільму:   9.9/10 (Голосів: 23)
   
dimon-2018 
VIP


З нами з: 06.05.18
Востаннє: 01.04.20
Повідомлень: 476

2019-10-18 18:38  
Arsenfpu
український постер

t850 
VIP


З нами з: 03.10.12
Востаннє: 07.12.19
Повідомлень: 272

2019-10-18 18:42  
Нормальний мульт, під новорічні свята краще подивитись.
N.W.A 
VIP


З нами з: 22.11.13
Востаннє: 31.03.20
Повідомлень: 351

2019-10-26 23:02  
Ще б в HD з двома доріжками був реліз, бо є тільки з ICTV, але там досить низька якість звуку.
Мультфільм супер, для мене особисто він відкрив світ новітньої графіки в мультфільмах, яка десь в ті роки тільки зароджувалась. Може дещо і банальний своїм сюжетом, проте атмосферність мене завжди вражала, особливо переглядаючи на новорічні свята. Комбінація Земекіс+Хенкс не може підвести.
9/10.

Ваш часовий пояс: GMT + 2 Години

Нова тема   Відповісти