Дивовижна історія дивного кохання / Ajab Prem Ki Ghazab Kahani / अजब प्रेम की ग़ज़ब कहानी (2009) AVC

Нові коментарі

Нова тема   Відповісти
Автор Повідомлення
Arsenfpu 
Відео Гуртом - фільмокрай
Відео Гуртом - фільмокрай


З нами з: 30.04.09
Востаннє: 18.10.19
Повідомлень: 6150

2019-10-08 19:18  
Дивовижна історія дивного кохання / Ajab Prem Ki Ghazab Kahani / अजब प्रेम की ग़ज़ब कहानी (2009) AVC

Дивовижна історія дивного кохання / Ajab Prem Ki Ghazab Kahani / अजब प्रेम की ग़ज़ब कहानी (2009) AVC


Жанр: пригодницький, екшн, мелодрама, комедія, музичний
Країна: Індія



Кінокомпанія: Tips Films Pvt. Ltd., Tips Industries
Режисер: Раджкумар Сантоші
Актори: Катріна Кейф, Ранбір Капур, Упен Пател, Салман Кхан

Сюжет:
Прем живе в Гоа і цілком задоволений своїм життям. Його єдине заняття в житті - спробувати зробити щасливими інших. Тому він з ентузіазмом береться допомогти своєму закоханому другу викрасти його дівчину з дому. При цьому Прем примудряється створити ще більше проблем. Він знайомиться з Дженні, яка спочатку не сприймає його всерйоз, але потім починає відчувати ніжні почуття до цього доброго хлопця. Крім легковажного характеру Прем володіє ще одним милим якістю - хвилюючись, він починає заїкатися, так само як і Дженні. Він дарує дівчині свою любов, а це саме те, чого сироті Дженні так не вистачає в її прийомній сім'ї. Але мрії Премії про взаємність розбиваються, коли Дженні повідомляє йому, що любить Рахула, сина політика Пітамбара Джалал.


Тривалість: 02:24:19
Якість:
Відео:
кодек:
розмір кадру: 1 024 х 432
бітрейт: 1 600 кб/с

Аудіо:
мова: українська
переклад: багатоголосий закадровий КІТ
кодек: 2.0
бітрейт: 192 кб/с
Про файл
General
Unique ID : 192687598154196795852927103487213184917 (0x90F64811AD30267D108CD6B3710E2795)
Complete name : C:\Ajab Prem Ki Ghazab Kahani (2009) AVC [Hurtom].
Format :
Format version : Version 4 / Version 2
File size : 1.81 GiB
Duration : 2 h 24 min
Overall bit rate : 1 794 kb/s
Movie name : Дивовижна історія дивного кохання / Ajab Prem Ki Ghazab Kahani (2009)
Encoded date : UTC 2019-10-08 16:03:11
Writing application : v21.0.0 ('Tardigrades Will Inherit The Earth') 32-bit
Writing library : libebml v1.3.5 + v1.4.8
Cover : Yes
Attachments : cover.jpg

Video
ID : 1
Format : AVC
Format/Info : Advanced Video Codec
Format profile : [email protected]
Format settings, CABAC : Yes
Format settings, ReFrames : 4 frames
Codec ID : V_MPEG4/ISO/AVC
Duration : 2 h 24 min
Bit rate : 1 600 kb/s
Width : 1 024 pixels
Height : 432 pixels
Display aspect ratio : 2.40:1
Frame rate mode : Constant
Frame rate : 25.000 FPS
Color space : YUV
Chroma subsampling : 4:2:0
Bit depth : 8 bits
Scan type : Progressive
Bits/(Pixel*Frame) : 0.145
Stream size : 1.61 GiB (89%)
Writing library : core 157 r2935 545de2f
Encoding settings : cabac=1 / ref=3 / deblock=1:-1:-1 / analyse=0x3:0x113 / me=hex / subme=7 / psy=1 / psy_rd=1.00:0.15 / mixed_ref=1 / me_range=16 / chroma_me=1 / trellis=1 / 8x8dct=1 / cqm=0 / deadzone=21,11 / fast_pskip=1 / chroma_qp_offset=-3 / threads=12 / lookahead_threads=2 / sliced_threads=0 / nr=0 / decimate=1 / interlaced=0 / bluray_compat=0 / constrained_intra=0 / bframes=3 / b_pyramid=2 / b_adapt=1 / b_bias=0 / direct=1 / weightb=1 / open_gop=0 / weightp=2 / keyint=250 / keyint_min=25 / scenecut=40 / intra_refresh=0 / rc_lookahead=40 / rc=2pass / mbtree=1 / bitrate=1600 / ratetol=1.0 / qcomp=0.60 / qpmin=0 / qpmax=69 / qpstep=4 / cplxblur=20.0 / qblur=0.5 / ip_ratio=1.40 / aq=1:1.00
Default : Yes
Forced : No

Audio
ID : 2
Format : AC-3
Format/Info : Audio Coding 3
Mode extension : CM (complete main)
Format settings, Endianness : Big
Codec ID : A_AC3
Duration : 2 h 24 min
Bit rate mode : Constant
Bit rate : 192 kb/s
Channel(s) : 2 channels
Channel positions : Front: L R
Sampling rate : 48.0 kHz
Frame rate : 31.250 FPS (1536 spf)
Compression mode : Lossy
Stream size : 198 MiB (11%)
Language : Ukrainian
Default : Yes
Forced : Yes
Скріншоти












Джерело:
За матеріал для релізу дякую пану leicheman
Особиста оцінка: не дивився


 Трекер:    Зареєстрований   

Завантажити / скачати фільм українською



відео для новачків



 Зареєстрований:   2019-10-08 19:18
 Розмір:   1.81 GB 
 Оцінка фільму:   10/10 (Голосів: 2)
   
nelsonvan 
Частий відвідувач


З нами з: 07.01.16
Востаннє: 18.10.19
Повідомлень: 34

2019-10-09 22:29  
"Прем володіє ще одним милим якістю "

поправте будь ласка :-)

Ваш часовий пояс: GMT + 2 Години

Нова тема   Відповісти