Водій для копа / Stuber (2019) UHD Remux 4K 2160p HDR H.265 Ukr/Eng | Sub Ukr/Eng

Нові коментарі

Нова тема   Відповісти
Автор Повідомлення
Anonymous 







2019-10-08 16:38  
Водій для копа / Stuber (2019) UHD Remux 4K 2160p HDR H.265 Ukr/Eng | Sub Ukr/Eng

Водій для копа / Stuber (2019) UHD Remux 4K 2160p HDR H.265 Ukr/Eng | Sub Ukr/Eng


Жанр: бойовик, комедія
Країна: США



Кінокомпанія: 20th Century Fox
Режисер: Майкл Даус
Актори: Кумейл Нанджіані, Дейв Батіста, Карен Гіллан, Бетті Джилпін, Наталі Моралес, Стів Хові, Міра Сорвіно, Іко Ювайс, Джиммі Татро

Сюжет:
Стю працює водієм машини Uber. Він приємний, спокійний, дуже ввічливо спілкується з людьми. І ось, його перший клієнт – величезний мужик на ім'я Вік. Як виявилося, він поліцейський детектив, який викликав машину для оперативного завдання. Тепер Стю буде з ним їздити щодо розслідування до тих пір, поки його не відпустять. Вік переслідує жорсткого, кровожерного терориста, для чого йому якраз потрібен водій із машиною. Хоче того Стю чи ні, але йому доведеться бачити всю цю жорстокість, а часом і самому її проявляти. Бійки, перестрілки та багато небезпеки для життя – не такою він собі уявляв роботу водієм Uberа. Хоч би залишитися після цієї поїздочка цілим і неушкодженим.


Тривалість: 01:33:24
Якість: UHD Remux 4K 2160p

Відео:
кодек: H.265 (HEVC)
розмір кадру: 3840x2160
бітрейт: 66,3 Мб/с
бітова глибина: 10 біт
кольоровий простір: BT.2020 (HDR)

Аудіо # 1:
мова: українська
переклад: професійний дубльований
кодек: 5.1
бітрейт: 384 кб/с

Аудіо # 2:
мова: англійська
переклад: оригінал
кодек: 5.1
бітрейт: 640 кб/с

Аудіо # 3:
мова: англійська
переклад: оригінал
кодек: TrueHD + Atmos 7.1
бітрейт: 3937 кб/с

Джерело озвучення:


Субтитри # 1: (Forced)
мова: українська
тип: програмні (м'які)
формат: *.srt

Субтитри # 2: (Full)
мова: українська
тип: програмні (м'які)
формат: *.srt

Субтитри # 3: (Full)
мова: англійська
тип: програмні (м'які)
формат: *.srt
Info
Код:
General
Complete name                            : Stuber (2019) UHD Remux 4K 2160p HDR H.265 (HEVC) [UKR_ENG] [ViDeO_Hurtom].
Format                                   :
Format version                           : Version 4
File size                                : 46.5 GiB
Duration                                 : 1 h 33 min
Overall bit rate mode                    : Variable
Overall bit rate                         : 71.3 Mb/s
Movie name                               : Stuber (2019) UHD Remux 4K 2160p HDR H.265 (HEVC) [UKR_ENG] [ViDeO_Hurtom]
Encoded date                             : UTC 2020-05-22 05:52:52
Writing application                      : v30.1.0 ('Forever And More') 64-bit
Writing library                          : libebml v1.3.6 + v1.4.9
Cover                                    : Yes
Attachments                              : cover.jpg

Video
ID                                       : 1
Format                                   : HEVC
Format/Info                              : High Efficiency Video Coding
Commercial name                          : HDR10
Format profile                           : Main [email protected]@High
Codec ID                                 : V_MPEGH/ISO/HEVC
Duration                                 : 1 h 33 min
Bit rate                                 : 66.3 Mb/s
Width                                    : 3 840 pixels
Height                                   : 2 160 pixels
Display aspect ratio                     : 16:9
Frame rate mode                          : Constant
Frame rate                               : 23.976 (24000/1001) FPS
Color space                              : YUV
Chroma subsampling                       : 4:2:0 (Type 2)
Bit depth                                : 10 bits
Bits/(Pixel*Frame)                       : 0.333
Stream size                              : 43.2 GiB (93%)
Language                                 : English
Default                                  : Yes
Forced                                   : No
Color range                              : Limited
Color primaries                          : BT.2020
Transfer characteristics                 : PQ
Matrix coefficients                      : BT.2020 non-constant
Mastering display color primaries        : Display P3
Mastering display luminance              : min: 0.0050 cd/m2, max: 1000 cd/m2

Audio #1
ID                                       : 2
Format                                   : AC-3
Format/Info                              : Audio Coding 3
Commercial name                          : Dolby Digital
Codec ID                                 : A_AC3
Duration                                 : 1 h 33 min
Bit rate mode                            : Constant
Bit rate                                 : 384 kb/s
Channel(s)                               : 6 channels
Channel layout                           : L R C LFE Ls Rs
Sampling rate                            : 48.0 kHz
Frame rate                               : 31.250 FPS (1536 SPF)
Bit depth                                : 16 bits
Compression mode                         : Lossy
Delay relative to video                  : -27 ms
Stream size                              : 256 MiB (1%)
Title                                    : , 6 ch, 384 Кбт/с
Language                                 : Ukrainian
Service kind                             : Complete Main
Default                                  : Yes
Forced                                   : No

Audio #2
ID                                       : 3
Format                                   : AC-3
Format/Info                              : Audio Coding 3
Commercial name                          : Dolby Digital
Codec ID                                 : A_AC3
Duration                                 : 1 h 33 min
Bit rate mode                            : Constant
Bit rate                                 : 640 kb/s
Channel(s)                               : 6 channels
Channel layout                           : L R C LFE Ls Rs
Sampling rate                            : 48.0 kHz
Frame rate                               : 31.250 FPS (1536 SPF)
Bit depth                                : 16 bits
Compression mode                         : Lossy
Stream size                              : 428 MiB (1%)
Title                                    : , 6 ch, 640 Кбт/с
Language                                 : English
Service kind                             : Complete Main
Default                                  : No
Forced                                   : No

Audio #3
ID                                       : 4
Format                                   : MLP FBA 16-ch
Format/Info                              : Meridian Lossless Packing FBA with 16-channel presentation
Commercial name                          : Dolby TrueHD with Dolby Atmos
Codec ID                                 : A_TRUEHD
Duration                                 : 1 h 33 min
Bit rate mode                            : Variable
Bit rate                                 : 3 937 kb/s
Maximum bit rate                         : 6 696 kb/s
Channel(s)                               : 8 channels
Channel layout                           : L R C LFE Ls Rs Lb Rb
Sampling rate                            : 48.0 kHz
Frame rate                               : 1 200.000 FPS (40 SPF)
Compression mode                         : Lossless
Stream size                              : 2.57 GiB (6%)
Title                                    : TrueHD, 8 ch, 3937 Кбт/с
Language                                 : English
Default                                  : No
Forced                                   : No
Number of dynamic objects                : 13
Bed channel count                        : 1 channel
Bed channel configuration                : LFE

Text #1
ID                                       : 5
Format                                   : UTF-8
Codec ID                                 : S_TEXT/UTF8
Codec ID/Info                            : UTF-8 Plain Text
Duration                                 : 1 h 27 min
Bit rate                                 : 1 b/s
Count of elements                        : 20
Stream size                              : 725 Bytes (0%)
Title                                    : Forced
Language                                 : Ukrainian
Default                                  : No
Forced                                   : No

Text #2
ID                                       : 6
Format                                   : UTF-8
Codec ID                                 : S_TEXT/UTF8
Codec ID/Info                            : UTF-8 Plain Text
Duration                                 : 1 h 32 min
Bit rate                                 : 115 b/s
Count of elements                        : 1813
Stream size                              : 78.6 KiB (0%)
Title                                    : Full
Language                                 : Ukrainian
Default                                  : Yes
Forced                                   : No

Text #3
ID                                       : 7
Format                                   : UTF-8
Codec ID                                 : S_TEXT/UTF8
Codec ID/Info                            : UTF-8 Plain Text
Duration                                 : 1 h 26 min
Bit rate                                 : 83 b/s
Count of elements                        : 1795
Stream size                              : 52.9 KiB (0%)
Title                                    : Full
Language                                 : English
Default                                  : No
Forced                                   : No

Menu
00:00:00.000                             : en:Chapter 01
00:05:52.435                             : en:Chapter 02
00:09:57.222                             : en:Chapter 03
00:14:14.854                             : en:Chapter 04
00:17:30.675                             : en:Chapter 05
00:19:46.310                             : en:Chapter 06
00:22:40.276                             : en:Chapter 07
00:27:33.402                             : en:Chapter 08
00:31:30.889                             : en:Chapter 09
00:33:19.247                             : en:Chapter 10
00:35:39.888                             : en:Chapter 11
00:40:13.036                             : en:Chapter 12
00:45:05.202                             : en:Chapter 13
00:49:10.114                             : en:Chapter 14
00:52:36.987                             : en:Chapter 15
00:56:46.111                             : en:Chapter 16
01:01:54.252                             : en:Chapter 17
01:05:43.648                             : en:Chapter 18
01:08:37.196                             : en:Chapter 19
01:13:31.157                             : en:Chapter 20
01:16:44.517                             : en:Chapter 21
01:19:07.534                             : en:Chapter 22
01:23:54.780                             : en:Chapter 23
01:27:49.598                             : en:Chapter 24
Скріншоти
Джерело: &
Особиста оцінка: 7 - моїй подрузі не сподобалося


Золотий реліз (завантажене не впливає на рейтинг)
 Трекер:    Зареєстрований   

Завантажити / скачати фільм українською



відео для новачків



 Зареєстрований:   2020-05-22 10:33
 Розмір:   46.53 GB 
 Оцінка фільму:   8.7/10 (Голосів: 18)
   
Інші релізи
   Водій для копа / Stuber (2019) 1080p Ukr/Eng | Sub Ukr/Eng staf777  2 / 0   8.44 GB   2020-06-09 22:21 
   Водій для копа / Stuber (2019) Remux 1080p Ukr/Eng | Sub Ukr/Eng staf777  1 / 0   23.06 GB   2020-06-09 21:42 
   Водій для копа / Stuber (2019) Ukr/Eng | Sub Eng antik_2008  5 / 0   1.81 GB   2020-05-19 18:56 
   Водій для копа / Stuber (2019) 720p Ukr/Eng | Sub Ukr/Eng 11FrYkT  5 / 0   3.72 GB   2020-05-17 10:34 
   Водій для копа / Stuber (2019) AVC Ukr/Eng | Sub Ukr/Eng 11FrYkT  11 / 0   1.73 GB   2020-05-17 10:32 
igor911 
Модератор відео


З нами з: 18.01.08
Востаннє: 22.09.20
Повідомлень: 14999

2019-10-09 00:04  
Anonymous написано:
Sub Eng

Повні українські субтитри було знову проігноровано ...
https://toloka.to/t104544
Цитата:
1080p Ukr/Eng | Sub Ukr/Eng
...Дякую antik_2008 за готовий реліз
українські субтитри окремо

Anonymous 







2019-10-09 00:26  
igor911
Дякую

YurOK_88 
Новенький


З нами з: 26.09.18
Востаннє: 19.09.20
Повідомлень: 13

2019-10-19 03:41  
Найкращий фільм! ) Дякую!! Рекомендую! )
Anonymous 







2019-10-20 21:17  
На один раз кіно.
Anonymous 







2020-05-20 06:56  
Заміна аудіо на 5.1
Anonymous 







2020-05-22 10:34  
Додано укр. субтитри
Ваш часовий пояс: GMT + 2 Години

Нова тема   Відповісти