Око за око / Eye for an Eye (1996) AVC Ukr/Eng | sub Eng

Нові коментарі

Нова тема   Відповісти
Автор Повідомлення
Arsenfpu 
Відео Гуртом - фільмокрай
Відео Гуртом - фільмокрай


З нами з: 30.04.09
Востаннє: 18.10.19
Повідомлень: 6150

2019-10-07 20:21  
Око за око / Eye for an Eye (1996) AVC Ukr/Eng | sub Eng

Око за око / Eye for an Eye (1996) AVC Ukr/Eng | sub Eng


Жанр: трилер, драма, кримінальний
Країна: США



Кінокомпанія: Paramount Pictures
Режисер: Джон Шлезінгер
Актори: Саллі Філд, Ед Гарріс, Олівія Бернетт, Олександра Кайл, Кіфер Сазерленд

Сюжет:
В Керен Маккен трапилася жахлива трагедія: у будинок Маккенів увірвався покидьок і вбив її єдину сімнадцятирічну доньку. Злочинця вдалося заарештувати, але Керен чекав новий кошмар. Нестерпна біль від страшного горя змінилася шоком і люттю. Недосконала судова машина допустила непоправну помилку: вбивця вийшов на свободу. І що найжахливіше - у нього не пропав смак до чужої смерті: скоро він знову починає вбивство. Але ж хтось повинен покарати жорстокого монстра, якщо правосуддя безсиле! І цим "кимось" стає Керен, яка терпляче і ретельно починає розробляти план помсти...


Тривалість: 01:41:15
Якість:
Відео:
кодек:
розмір кадру: 1 024 х 576
бітрейт: 2 499 кб/с

Аудіо # 1:
мова: українська
переклад: багатоголосий закадровий
кодек: 2.0
бітрейт: 192 кб/с

Аудіо # 2:
мова: англійська
переклад: оригінал
кодек: 2.0
бітрейт: 192 кб/с

Субтитри:
мова: англійська
тип: програмні (м'які)
формат: *.srt
Про файл
General
Unique ID : 276501111082658956125588505160435756871 (0xD0042D4C885295A042FE8DA54795EF47)
Format :
Format version : Version 4 / Version 2
File size : 2.04 GiB
Duration : 1 h 41 min
Overall bit rate : 2 884 kb/s
Movie name : Око за око / Eye for an Eye (1996)
Encoded date : UTC 2019-10-07 16:55:20
Writing application : v21.0.0 ('Tardigrades Will Inherit The Earth') 32-bit
Writing library : libebml v1.3.5 + v1.4.8
Cover : Yes
Attachments : cover.jpg

Video
ID : 1
Format : AVC
Format/Info : Advanced Video Codec
Format profile : [email protected]
Format settings, CABAC : Yes
Format settings, ReFrames : 4 frames
Codec ID : V_MPEG4/ISO/AVC
Duration : 1 h 41 min
Bit rate : 2 499 kb/s
Width : 1 024 pixels
Height : 576 pixels
Display aspect ratio : 16:9
Frame rate mode : Constant
Frame rate : 23.976 (24000/1001) FPS
Color space : YUV
Chroma subsampling : 4:2:0
Bit depth : 8 bits
Scan type : Progressive
Bits/(Pixel*Frame) : 0.177
Stream size : 1.77 GiB (87%)
Writing library : core 157 r2935 545de2f
Encoding settings : cabac=1 / ref=3 / deblock=1:-1:-1 / analyse=0x3:0x113 / me=hex / subme=7 / psy=1 / psy_rd=1.00:0.15 / mixed_ref=1 / me_range=16 / chroma_me=1 / trellis=1 / 8x8dct=1 / cqm=0 / deadzone=21,11 / fast_pskip=1 / chroma_qp_offset=-3 / threads=12 / lookahead_threads=2 / sliced_threads=0 / nr=0 / decimate=1 / interlaced=0 / bluray_compat=0 / constrained_intra=0 / bframes=3 / b_pyramid=2 / b_adapt=1 / b_bias=0 / direct=1 / weightb=1 / open_gop=0 / weightp=2 / keyint=240 / keyint_min=23 / scenecut=40 / intra_refresh=0 / rc_lookahead=40 / rc=2pass / mbtree=1 / bitrate=2499 / ratetol=1.0 / qcomp=0.60 / qpmin=0 / qpmax=69 / qpstep=4 / cplxblur=20.0 / qblur=0.5 / ip_ratio=1.40 / aq=1:1.00
Default : Yes
Forced : No

Audio #1
ID : 2
Format : AC-3
Format/Info : Audio Coding 3
Mode extension : CM (complete main)
Format settings, Endianness : Big
Codec ID : A_AC3
Duration : 1 h 41 min
Bit rate mode : Constant
Bit rate : 192 kb/s
Channel(s) : 2 channels
Channel positions : Front: L R
Sampling rate : 48.0 kHz
Frame rate : 31.250 FPS (1536 spf)
Compression mode : Lossy
Stream size : 139 MiB (7%)
Title : Інтер
Language : Ukrainian
Default : Yes
Forced : Yes

Audio #2
ID : 3
Format : AC-3
Format/Info : Audio Coding 3
Mode extension : CM (complete main)
Format settings, Endianness : Big
Codec ID : A_AC3
Duration : 1 h 41 min
Bit rate mode : Constant
Bit rate : 192 kb/s
Channel(s) : 2 channels
Channel positions : Front: L R
Sampling rate : 48.0 kHz
Frame rate : 31.250 FPS (1536 spf)
Compression mode : Lossy
Stream size : 139 MiB (7%)
Language : English
Default : No
Forced : No

Text
ID : 4
Format : UTF-8
Codec ID : S_TEXT/UTF8
Codec ID/Info : UTF-8 Plain Text
Duration : 1 h 35 min
Bit rate : 53 b/s
Count of elements : 1592
Stream size : 37.1 KiB (0%)
Language : English
Default : Yes
Forced : No
Скріншоти














Джерело:
За матеріал для релізу дякую п. kicyunya, -Star-Lord-
Особиста оцінка: не дивився


Срібний реліз (на рейтинг впливає 50% завантаженого)
 Трекер:    Зареєстрований   

Завантажити / скачати фільм українською



відео для новачків



 Зареєстрований:   2019-10-07 20:21
 Розмір:   2.04 GB 
 Оцінка фільму:   9.3/10 (Голосів: 3)
   
Інші релізи
   Око за око / Eye for an Eye (1996) 1080p Ukr/Eng | Sub Eng -Star-Lord-  2 / 0   9.68 GB   2019-09-25 01:07 
   Око за око / Eye for an Eye (1996) 720p Ukr/Eng | Sub Eng drop_plz  1 / 1   3.44 GB   2018-07-07 12:51 
   Око за око / Eye for an Eye (1996) Ukr/Eng kicyunya  1 / 0   1.46 GB   2014-10-11 03:57 
Ваш часовий пояс: GMT + 2 Години

Нова тема   Відповісти