Холодне серце / Das kalte Herz (2014) AVC Ukr/Ger

Нові коментарі

Нова тема   Відповісти
Автор Повідомлення
Anonymous 







2019-10-07 12:56  
Холодне серце / Das kalte Herz (2014) AVC Ukr/Ger

Холодне серце / Das kalte Herz (2014) AVC Ukr/Ger

Back


Жанр: сімейний, казка
Країна: Німеччина



Кінокомпанія: Provobis Gesellschaft für Film und Fernsehen, Moviepool, Zweites Deutsches Fernsehen (ZDF)
Режисер: Марк-Андреас Бочерт
Актори: Лаура Луїза Гарде, Рафаель Гарейсен, Марі Грубер, Вольфганг Менарді та інші

Сюжет:
«Холодне серце» із збірки казок Вільгельма Гауфа розповідає історію бідного вугляра Петера Мунка, який звертається до двох таємничих лісових духів, щоб перетворити свою долю на краще.


Тривалість: 01:22:08
Якість:
Відео:
кодек:
розмір кадру: 720 х 576
бітрейт: 2200 кб/с

Аудіо # 1:
мова: українська
переклад: професійний дубльований
кодек: 2.0
бітрейт: 192 кб/с

Аудіо # 2:
мова: німецька
переклад: оригінал
кодек: 2.0
бітрейт: 128 кб/с

Джерело озвучення:

Подяка пану POMEO за запис з ТБ
Звук взято з релізу
MI
General
Unique ID : 320794909980123075221916829180680580869 (0xF156DA313C43938D43C03675B761AF05)
Complete name : Das kalte Herz (2014) AVC [Ukr_Ger] [Hurtom].
Format :
Format version : Version 4
File size : 1.42 GiB
Duration : 1 h 22 min
Overall bit rate : 2 482 kb/s
Movie name : Холодне серце (2014)
Encoded date : UTC 2019-10-07 08:50:18
Writing application : v37.0.0 ('Leave It') 32-bit
Writing library : libebml v1.3.9 + v1.5.2
Cover : Yes
Attachments : cover.jpg

Video
ID : 1
Format : AVC
Format/Info : Advanced Video Codec
Format profile : [email protected]
Format settings : CABAC / 4 Ref Frames
Format settings, CABAC : Yes
Format settings, ReFrames : 4 frames
Codec ID : V_MPEG4/ISO/AVC
Duration : 1 h 22 min
Bit rate mode : Constant
Bit rate : 2 200 kb/s
Width : 720 pixels
Height : 576 pixels
Display aspect ratio : 16:9
Frame rate mode : Constant
Frame rate : 25.000 FPS
Standard : PAL
Color space : YUV
Chroma subsampling : 4:2:0
Bit depth : 8 bits
Scan type : MBAFF
Scan type, store method : Interleaved fields
Scan order : Bottom Field First
Bits/(Pixel*Frame) : 0.212
Stream size : 1.24 GiB (87%)
Language : German
Default : Yes
Forced : No

Audio #1
ID : 2
Format : AC-3
Format/Info : Audio Coding 3
Commercial name : Dolby Digital
Codec ID : A_AC3
Duration : 1 h 22 min
Bit rate mode : Constant
Bit rate : 192 kb/s
Channel(s) : 2 channels
Channel layout : L R
Sampling rate : 48.0 kHz
Frame rate : 31.250 FPS (1536 SPF)
Bit depth : 16 bits
Compression mode : Lossy
Delay relative to video : -40 ms
Stream size : 113 MiB (8%)
Language : Uighur
Service kind : Complete Main
Default : Yes
Forced : Yes

Audio #2
ID : 3
Format : LC
Format/Info : Advanced Audio Codec Low Complexity
Codec ID : A_AAC-2
Duration : 1 h 22 min
Bit rate : 128 kb/s
Channel(s) : 2 channels
Channel layout : L R
Sampling rate : 48.0 kHz
Frame rate : 46.875 FPS (1024 SPF)
Compression mode : Lossy
Delay relative to video : -40 ms
Stream size : 75.2 MiB (5%)
Language : German
Default : No
Forced : No
Скріншоти





Джерело:


 Трекер:    Зареєстрований   

Завантажити / скачати фільм українською



відео для новачків



 Зареєстрований:   2019-10-07 12:56
 Розмір:   1.42 GB 
 Оцінка фільму:   10/10 (Голосів: 3)
   
Інші релізи
   Холодне серце / Das kalte Herz (2014) Electroz  6 / 0   1.37 GB   2017-01-15 16:59 
Electroz 
Відео Гуртом - підтримка та поширення
Відео Гуртом - підтримка та поширення


З нами з: 18.09.14
Востаннє: 18.10.19
Повідомлень: 3599

2019-10-07 14:30  
Anonymous написано:
AVC

На скріншотах скоріше за все запис з HDTV.
Чому вже блюр не виклав?

Ваш часовий пояс: GMT + 2 Години

Нова тема   Відповісти