Історія іграшок: Загублені в часі / Toy Story That Time Forgot (2014) Remux 1080p Ukr/Eng | Sub Eng

Нові коментарі

Нова тема   Відповісти
Автор Повідомлення
Anonymous 







2019-10-06 20:42  
Історія іграшок: Загублені в часі / Toy Story That Time Forgot (2014) Remux 1080p Ukr/Eng | Sub Eng

Історія іграшок: Загублені в часі / Toy Story That Time Forgot (2014) Remux 1080p Ukr/Eng | Sub Eng


Жанр: анімація, дитячий, сімейний
Країна: США
Кінокомпанія: Pixar Animation Studios
Режисер: Стів Пурселл
Ролі озвучують: Том Хенкс, Емілі Хан, Воллес Шоун, Стів Пурселл, Джонатан Кідд, Дон Ріклз, Лорі Алан, Тім Аллен, Рон Боттітта, Джоан Кьюсак, Тімоті Далтон

Сюжет:
От і минули різдвяні свята, й наші старі друзі потрапляють до чужого будинку, де мають протистояти агресивним і небезпечним іграшкам-динозаврам.

Тривалість: 00:21:36
Якість: Remux

Відео:
кодек:
розмір кадру: 1920 x 1080
бітрейт: 23 803 кб/с

Аудіо # 1:
мова: українська
переклад: професійний дубльований
кодек: AC-3 2.0
бітрейт: 192 кб/с

Аудіо # 2:
мова: англійська
переклад: оригінал
кодек: 5.1
бітрейт: 1510 кб/с

Аудіо # 3:
мова: англійська
переклад: коментарі
кодек: AC-3 2.0
бітрейт: 320 кб/с

Субтитри # 1-2: (Full, Commentary)
мова: англійська
тип: програмні (м'які)
формат: *.srt


Info
Код:
General
Unique ID                                : 12160140069296465023980024508148342992 (0x925F531A493442EA2C4C7EE21F7E0D0)
Complete name                            : Toy Story That Time Forgot (2014) Remux 1080p [UKR_ENG] [Hurtom].
Format                                   :
Format version                           : Version 4
File size                                : 3.90 GiB
Duration                                 : 21 min 36 s
Overall bit rate mode                    : Variable
Overall bit rate                         : 25.8 Mb/s
Movie name                               : Історія іграшок: Загублені в часі / Toy Story That Time Forgot (2014)
Encoded date                             : UTC 2019-10-06 18:35:39
Writing application                      : v20.0.0 ('I Am The Sun') 64-bit
Writing library                          : libebml v1.3.5 + v1.4.8
Cover                                    : Yes
Attachments                              : Cover.jpg

Video
ID                                       : 1
Format                                   : AVC
Format/Info                              : Advanced Video Codec
Format profile                           : [email protected]
Format settings                          : CABAC / 4 Ref Frames
Format settings, CABAC                   : Yes
Format settings, Reference frames        : 4 frames
Codec ID                                 : V_MPEG4/ISO/AVC
Duration                                 : 21 min 36 s
Bit rate mode                            : Variable
Bit rate                                 : 23.8 Mb/s
Maximum bit rate                         : 34.0 Mb/s
Width                                    : 1 920 pixels
Height                                   : 1 080 pixels
Display aspect ratio                     : 16:9
Frame rate mode                          : Constant
Frame rate                               : 23.976 (24000/1001) FPS
Color space                              : YUV
Chroma subsampling                       : 4:2:0
Bit depth                                : 8 bits
Scan type                                : Progressive
Bits/(Pixel*Frame)                       : 0.479
Stream size                              : 3.59 GiB (92%)
Title                                    : Історія іграшок: Загублені в часі / Toy Story That Time Forgot (2014)
Default                                  : Yes
Forced                                   : No

Audio #1
ID                                       : 2
Format                                   : AC-3
Format/Info                              : Audio Coding 3
Commercial name                          : Dolby Digital
Codec ID                                 : A_AC3
Duration                                 : 21 min 36 s
Bit rate mode                            : Constant
Bit rate                                 : 192 kb/s
Channel(s)                               : 2 channels
Channel layout                           : L R
Sampling rate                            : 48.0 kHz
Frame rate                               : 31.250 FPS (1536 SPF)
Bit depth                                : 16 bits
Compression mode                         : Lossy
Stream size                              : 29.7 MiB (1%)
Title                                    : / 2.0 Ch / 192 kbps / ПД
Language                                 : Ukrainian
Service kind                             : Complete Main
Default                                  : Yes
Forced                                   : Yes

Audio #2
ID                                       : 3
Format                                   :
Format/Info                              : Digital Theater Systems
Codec ID                                 : A_DTS
Duration                                 : 21 min 36 s
Bit rate mode                            : Constant
Bit rate                                 : 1 509 kb/s
Channel(s)                               : 6 channels
Channel layout                           : C L R Ls Rs LFE
Sampling rate                            : 48.0 kHz
Frame rate                               : 93.750 FPS (512 SPF)
Bit depth                                : 24 bits
Compression mode                         : Lossy
Stream size                              : 233 MiB (6%)
Title                                    : / 5.1 Ch / 1509 kbps / Original
Language                                 : English
Default                                  : No
Forced                                   : No

Audio #3
ID                                       : 4
Format                                   : AC-3
Format/Info                              : Audio Coding 3
Commercial name                          : Dolby Digital
Codec ID                                 : A_AC3
Duration                                 : 21 min 36 s
Bit rate mode                            : Constant
Bit rate                                 : 320 kb/s
Channel(s)                               : 2 channels
Channel layout                           : L R
Sampling rate                            : 48.0 kHz
Frame rate                               : 31.250 FPS (1536 SPF)
Bit depth                                : 16 bits
Compression mode                         : Lossy
Stream size                              : 49.5 MiB (1%)
Title                                    : / 2.0 Ch / 320 kbps / Original / Commentary
Language                                 : English
Service kind                             : Complete Main
Default                                  : No
Forced                                   : No

Text #1
ID                                       : 5
Format                                   : UTF-8
Codec ID                                 : S_TEXT/UTF8
Codec ID/Info                            : UTF-8 Plain Text
Duration                                 : 21 min 17 s
Bit rate                                 : 75 b/s
Count of elements                        : 414
Stream size                              : 11.8 KiB (0%)
Title                                    : Full
Language                                 : English
Default                                  : Yes
Forced                                   : No

Text #2
ID                                       : 6
Format                                   : UTF-8
Codec ID                                 : S_TEXT/UTF8
Codec ID/Info                            : UTF-8 Plain Text
Duration                                 : 21 min 28 s
Bit rate                                 : 127 b/s
Count of elements                        : 434
Stream size                              : 20.0 KiB (0%)
Title                                    : Commentary
Language                                 : English
Default                                  : No
Forced                                   : No
Світлини




Джерело: &
Особиста оцінка: 0 - не дивився


Золотий реліз (завантажене не впливає на рейтинг)
 Трекер:    Зареєстрований   

Завантажити / скачати мультфільм українською



відео для новачків



 Зареєстрований:   2019-10-06 20:42
 Розмір:   3.9 GB 
 Оцінка мультфільму:   10/10 (Голосів: 9)
   
Ваш часовий пояс: GMT + 2 Години

Нова тема   Відповісти