Історія іграшок, страшилка / Toy Story of Terror (2013) Remux 1080p 3xUkr/Eng | Sub Ukr/Eng

Нові коментарі

Нова тема   Відповісти
Автор Повідомлення
Anonymous 







2019-10-06 20:40  
Історія іграшок, страшилка / Toy Story of Terror (2013) Remux 1080p 3xUkr/Eng | Sub Ukr/Eng

Історія іграшок, страшилка / Toy Story of Terror (2013) Remux 1080p 3xUkr/Eng | Sub Ukr/Eng


Жанр: анімація, дитячий, сімейний
Країна: США
Режисер: Анґус МакЛейн / Angus MacLane
Ролі озвучують: Том Генкс / Tom Hanks, Тім Аллен / Tim Allen, Джоан К'юсак /Joan Cusack, Карл Везерс / Carl Weathers та інші

Сюжет:
На невгамовні іграшки чекає нова пригода в таємничому й небезпечному мотелі. Хтозна-які жахіття чекають їх на новому місці...

Тривалість: 00:21:40
Якість: Remux

Відео:
кодек:
розмір кадру: 1920 x 1080
бітрейт: 25 710 кб/с

Аудіо # 1:
мова: українська
переклад: професійний дубльований
кодек: AC-3 5.1
бітрейт: 384 кб/с

Аудіо # 2:
мова: українська
переклад: професійний дубльований
кодек: AC-3 2.0
бітрейт: 192 кб/с

Аудіо # 3:
мова: українська
переклад: одноголосий закадровий | Студія: SapSap REcordz | Всі ролі озвучив: DS-F.A.I.K.
кодек: MP3
бітрейт: 256 кб/с

Аудіо # 4:
мова: англійська
переклад: оригінал
кодек: 5.1
бітрейт: 1510 кб/с

Аудіо # 5:
мова: англійська
переклад: коментарі
кодек: AC-3 2.0
бітрейт: 320 кб/с

Субтитри # 1: (Full by somnambula)
мова: українська
тип: програмні (м'які)
формат: *.srt

Субтитри # 2-4: (Full, SDH, Commentary)
мова: англійська
тип: програмні (м'які)
формат: *.srt


Info
Код:
General
Unique ID                                : 209212796392407284236998487691848526957 (0x9D64EB3F228B50DCE63CBC2A79EB2C6D)
Complete name                            : Toy Story of Terror (2013) Remux 1080p [3xUKR_ENG] [Hurtom].
Format                                   :
Format version                           : Version 4
File size                                : 4.30 GiB
Duration                                 : 21 min 40 s
Overall bit rate mode                    : Variable
Overall bit rate                         : 28.4 Mb/s
Movie name                               : Історія іграшок, страшилка / Toy Story of Terror (2013)
Encoded date                             : UTC 2019-10-06 18:18:00
Writing application                      : v20.0.0 ('I Am The Sun') 64-bit
Writing library                          : libebml v1.3.5 + v1.4.8
Cover                                    : Yes
Attachments                              : Cover.jpg

Video
ID                                       : 1
Format                                   : AVC
Format/Info                              : Advanced Video Codec
Format profile                           : [email protected]
Format settings                          : CABAC / 4 Ref Frames
Format settings, CABAC                   : Yes
Format settings, Reference frames        : 4 frames
Codec ID                                 : V_MPEG4/ISO/AVC
Duration                                 : 21 min 40 s
Bit rate mode                            : Variable
Bit rate                                 : 25.7 Mb/s
Maximum bit rate                         : 34.0 Mb/s
Width                                    : 1 920 pixels
Height                                   : 1 080 pixels
Display aspect ratio                     : 16:9
Frame rate mode                          : Constant
Frame rate                               : 23.976 (24000/1001) FPS
Color space                              : YUV
Chroma subsampling                       : 4:2:0
Bit depth                                : 8 bits
Scan type                                : Progressive
Bits/(Pixel*Frame)                       : 0.517
Stream size                              : 3.89 GiB (91%)
Title                                    : Історія іграшок, страшилка / Toy Story of Terror (2013)
Language                                 : English
Default                                  : Yes
Forced                                   : No

Audio #1
ID                                       : 2
Format                                   : AC-3
Format/Info                              : Audio Coding 3
Commercial name                          : Dolby Digital
Codec ID                                 : A_AC3
Duration                                 : 21 min 36 s
Bit rate mode                            : Constant
Bit rate                                 : 384 kb/s
Channel(s)                               : 6 channels
Channel layout                           : L R C LFE Ls Rs
Sampling rate                            : 48.0 kHz
Frame rate                               : 31.250 FPS (1536 SPF)
Bit depth                                : 16 bits
Compression mode                         : Lossy
Stream size                              : 59.4 MiB (1%)
Title                                    : / 5.1 Ch / 384 kbps / ПД / iTunes
Language                                 : Ukrainian
Service kind                             : Complete Main
Default                                  : Yes
Forced                                   : Yes

Audio #2
ID                                       : 3
Format                                   : AC-3
Format/Info                              : Audio Coding 3
Commercial name                          : Dolby Digital
Codec ID                                 : A_AC3
Duration                                 : 21 min 40 s
Bit rate mode                            : Constant
Bit rate                                 : 192 kb/s
Channel(s)                               : 2 channels
Channel layout                           : L R
Sampling rate                            : 48.0 kHz
Frame rate                               : 31.250 FPS (1536 SPF)
Bit depth                                : 16 bits
Compression mode                         : Lossy
Stream size                              : 29.8 MiB (1%)
Title                                    : / 2.0 Ch / 192 kbps / ПД / TET
Language                                 : Ukrainian
Service kind                             : Complete Main
Default                                  : No
Forced                                   : No

Audio #3
ID                                       : 4
Format                                   : MPEG Audio
Format version                           : Version 1
Format profile                           : Layer 3
Format settings                          : Joint stereo / MS Stereo
Codec ID                                 : A_MPEG/L3
Codec ID/Hint                            : MP3
Duration                                 : 21 min 33 s
Bit rate mode                            : Constant
Bit rate                                 : 256 kb/s
Channel(s)                               : 2 channels
Sampling rate                            : 44.1 kHz
Frame rate                               : 38.281 FPS (1152 SPF)
Compression mode                         : Lossy
Stream size                              : 39.5 MiB (1%)
Title                                    : MP3 / 2.0 Ch / 256 kbps / ОЗ / SapSap REcordz, DS-F.A.I.K.
Writing library                          : LAME3.99.5
Language                                 : Ukrainian
Default                                  : No
Forced                                   : No

Audio #4
ID                                       : 5
Format                                   :
Format/Info                              : Digital Theater Systems
Codec ID                                 : A_DTS
Duration                                 : 21 min 40 s
Bit rate mode                            : Constant
Bit rate                                 : 1 509 kb/s
Channel(s)                               : 6 channels
Channel layout                           : C L R Ls Rs LFE
Sampling rate                            : 48.0 kHz
Frame rate                               : 93.750 FPS (512 SPF)
Bit depth                                : 24 bits
Compression mode                         : Lossy
Stream size                              : 234 MiB (5%)
Title                                    : / 5.1 Ch / 1509 kbps / Original
Language                                 : English
Default                                  : No
Forced                                   : No

Audio #5
ID                                       : 6
Format                                   : AC-3
Format/Info                              : Audio Coding 3
Commercial name                          : Dolby Digital
Codec ID                                 : A_AC3
Duration                                 : 21 min 40 s
Bit rate mode                            : Constant
Bit rate                                 : 320 kb/s
Channel(s)                               : 2 channels
Channel layout                           : L R
Sampling rate                            : 48.0 kHz
Frame rate                               : 31.250 FPS (1536 SPF)
Bit depth                                : 16 bits
Compression mode                         : Lossy
Stream size                              : 49.6 MiB (1%)
Title                                    : / 2.0 Ch / 320 kbps / Original / Commentary
Language                                 : English
Service kind                             : Complete Main
Default                                  : No
Forced                                   : No

Text #1
ID                                       : 7
Format                                   : UTF-8
Codec ID                                 : S_TEXT/UTF8
Codec ID/Info                            : UTF-8 Plain Text
Duration                                 : 21 min 29 s
Bit rate                                 : 129 b/s
Count of elements                        : 376
Stream size                              : 20.4 KiB (0%)
Title                                    : Full by somnambula
Language                                 : Ukrainian
Default                                  : Yes
Forced                                   : No

Text #2
ID                                       : 8
Format                                   : UTF-8
Codec ID                                 : S_TEXT/UTF8
Codec ID/Info                            : UTF-8 Plain Text
Duration                                 : 21 min 10 s
Bit rate                                 : 77 b/s
Count of elements                        : 392
Stream size                              : 12.0 KiB (0%)
Title                                    : Full
Language                                 : English
Default                                  : No
Forced                                   : No

Text #3
ID                                       : 9
Format                                   : UTF-8
Codec ID                                 : S_TEXT/UTF8
Codec ID/Info                            : UTF-8 Plain Text
Duration                                 : 21 min 27 s
Bit rate                                 : 92 b/s
Count of elements                        : 496
Stream size                              : 14.5 KiB (0%)
Title                                    : SDH
Language                                 : English
Default                                  : No
Forced                                   : No

Text #4
ID                                       : 10
Format                                   : UTF-8
Codec ID                                 : S_TEXT/UTF8
Codec ID/Info                            : UTF-8 Plain Text
Duration                                 : 21 min 24 s
Bit rate                                 : 112 b/s
Count of elements                        : 372
Stream size                              : 17.7 KiB (0%)
Title                                    : Commentary
Language                                 : English
Default                                  : No
Forced                                   : No

Menu
00:00:00.000                             : en:00:00:00.000
00:02:21.683                             : en:00:02:21.683
00:03:22.744                             : en:00:03:22.744
00:05:37.254                             : en:00:05:37.254
00:07:16.770                             : en:00:07:16.770
00:09:48.004                             : en:00:09:48.004
00:12:18.363                             : en:00:12:18.363
00:15:31.931                             : en:00:15:31.931
00:17:53.531                             : en:00:17:53.531
00:19:54.777                             : en:00:19:54.777
Світлини




Джерело: &
Особиста оцінка: 0 - не дивився


Золотий реліз (завантажене не впливає на рейтинг)
 Трекер:    Зареєстрований   

Завантажити / скачати мультфільм українською



відео для новачків



 Зареєстрований:   2019-10-06 20:40
 Розмір:   4.3 GB 
 Оцінка мультфільму:   10/10 (Голосів: 2)
   
Ваш часовий пояс: GMT + 2 Години

Нова тема   Відповісти