Вартові Галактики / Marvel's Guardians of the Galaxy (Сезон 2) (2017) 1080p Ukr/Eng | sub Eng

Нові коментарі

Нова тема   Відповісти
Автор Повідомлення
sergiyko.5 
Забанено
Забанено


З нами з: 25.02.16
Востаннє: 29.10.20
Повідомлень: 3648

2019-10-06 18:49  
Всі одноіменні релізи на трекері

Вартові Галактики / Marvel's Guardians of the Galaxy (Сезон 2) (2017) 1080p Ukr/Eng


Вартові Галактики / Marvel's Guardians of the Galaxy (Сезон 2) (2017) 1080p Ukr/Eng | sub Eng

Жанр: Супергероїка, Пригоди, Екшн, Наукова Фантастика
Країна: США
Кінокомпанія: Marvel Television, Disney XD
Актори: Will Friedle, Trevor Devall, Vanessa Marshall, Kevin Michael Richardson, David Sobolov

Сюжет:
Цю компанію об'єднує одне - кожен втратив для себе щось цінне. Хтось позбувся будинку, хтось залишився без сім'ї та друзів, а хтось просто втратив віру в свою мрію. Так чи інакше, всі вони були позбавлені нормального життя, але згуртувавшись разом, перетворилися на незламну команду Вартових Галактики. Неповторний Єнот, чий арсенал озброєння перевершує всі мислимі межі. Могутній Дракс, здатний розплющити черепушку однією рукою. Зеленошкіра дівчина-кіборг Гамора, що володіє всіма стилями рукопашного бою. Деревоподібний Грут, що віддає перевагу грубій силі. І сам Зоряний Лицар, що зміг згуртувати цю різношерсту банду. Всі вони готові ризикнути життям і піти на будь-яку авантюру, заради порятунку Галактики.



Тривалість: 1 серія: 22:06 (цілком серій: 26 з 26)
Якість:

Відео: кодек: розмір кадру: 1920 х 1080 бітрейт: 4000 кб/с
Аудіо # 1: мова: українська переклад: професійний дубльований кодек: 2.0 бітрейт: 256 кб/с
Озвучення: НЛО-ТБ
Аудіо # 2: мова: англійська переклад: оригінал кодек: + 5.1 бітрейт: 384 кб/с
Перелік серій
01 Stayin Alive
02 Evolution Rock
03 Pick Up the Pieces
04 Lyin’ Eyes
05 Free Bird
06 Girls Just Wanna Have Fun
07 Black Helmet Woman
08 Right Place, Wrong Time
09 Me And You And A Dog Named Cosmo
10 Can’t Get It Out Of My Head
11 Rock Your Baby
12 It’s Tricky
13 Unfortunate Son
14 Symbiote War Part One – Wild World
15 Symbiote War Part Two – I Will Survive
16 Symbiote War Part Three – Thunder Road
17 Back in Black
18 Knights in Black Helmets
19 Nova Me, Nova You
20 Mr. Roboto
21 Destroyer
22 You Can’t Always Get What You Want
23 I’ve Seen All Good People
24 Another One Bites The Dust
25 You’re No Good
26 Behind Gold Eyes
Про файл:
General
Unique ID : 90779263481536712311466765025010935178 (0x444B733F720A3BC01A37ED937CD6658A)
Complete name : D:\Documents\Torrents\MULTSER\Marvels. Guardians of the Galaxy S02 1080p \S02E01.Stayin.Alive.1080p..
Format :
Format version : Version 4
File size : 777 MiB
Duration : 22 min 7 s
Overall bit rate mode : Variable
Overall bit rate : 4 911 kb/s
Movie name : Marvels. Guardians of the Galaxy S02 1080p by sergiyko
Encoded date : UTC 2019-10-06 15:40:12
Writing application : v36.0.0 ('Is That Jazz?') 64-bit
Writing library : libebml v1.3.9 + v1.5.2

Video
ID : 1
Format : AVC
Format/Info : Advanced Video Codec
Format profile : [email protected]
Format settings : CABAC / 4 Ref Frames
Format settings, CABAC : Yes
Format settings, Reference : 4 frames
Codec ID : V_MPEG4/ISO/AVC
Duration : 22 min 7 s
Bit rate mode : Variable
Bit rate : 4 013 kb/s
Maximum bit rate : 15.0 Mb/s
Width : 1 920 pixels
Height : 1 080 pixels
Display aspect ratio : 16:9
Frame rate mode : Constant
Frame rate : 23.976 (24000/1001) FPS
Color space : YUV
Chroma subsampling : 4:2:0
Bit depth : 8 bits
Scan type : Progressive
Bits/(Pixel*Frame) : 0.081
Stream size : 635 MiB (82%)
Title : S02E01.Stayin.Alive
Language : English
Default : Yes
Forced : No
Color range : Limited
Color primaries : BT.709
Transfer characteristics : BT.709
Matrix coefficients : BT.709

Audio #1
ID : 2
Format : AC-3
Format/Info : Audio Coding 3
Commercial name : Dolby Digital
Codec ID : A_AC3
Duration : 22 min 7 s
Bit rate mode : Constant
Bit rate : 256 kb/s
Channel(s) : 2 channels
Channel layout : L R
Sampling rate : 48.0 kHz
Frame rate : 31.250 FPS (1536 SPF)
Bit depth : 16 bits
Compression mode : Lossy
Stream size : 40.5 MiB (5%)
Title : DUB 2ch | NLO TV
Language : Ukrainian
Service kind : Complete Main
Default : Yes
Forced : Yes

Audio #2
ID : 3
Format : E-AC-3
Format/Info : Enhanced AC-3
Commercial name : Dolby Digital Plus
Codec ID : A_EAC3
Duration : 22 min 7 s
Bit rate mode : Constant
Bit rate : 640 kb/s
Channel(s) : 6 channels
Channel layout : L R C LFE Ls Rs
Sampling rate : 48.0 kHz
Frame rate : 31.250 FPS (1536 SPF)
Compression mode : Lossy
Stream size : 101 MiB (13%)
Title : Original
Language : English
Service kind : Complete Main
Default : No
Forced : No

Text
ID : 4
Format : UTF-8
Codec ID : S_TEXT/UTF8
Codec ID/Info : UTF-8 Plain Text
Duration : 21 min 37 s
Bit rate : 78 b/s
Count of elements : 393
Stream size : 12.5 KiB (0%)
Title : SDH
Language : English
Default : No
Forced : No
Скріншоти:


Запис/зведення: sergiyko


Бронзовий реліз (на рейтинг впливає 75% завантаженого)
 Трекер:    Зареєстрований   

Завантажити / скачати мультфільм українською



відео для новачків



 Зареєстрований:   2019-10-21 12:41
 Розмір:   19.49 GB 
 Оцінка мультсеріалу:   10/10 (Голосів: 11)
   
sergiyko.5 
Забанено
Забанено


З нами з: 25.02.16
Востаннє: 29.10.20
Повідомлень: 3648

2019-10-11 15:37  
Додав 9-12 серії.
marinich 
Частий відвідувач


З нами з: 05.03.11
Востаннє: 10.04.21
Повідомлень: 49

2019-10-14 15:25  
Якась послідовність серій не та, що на imdb.
sergiyko.5 
Забанено
Забанено


З нами з: 25.02.16
Востаннє: 29.10.20
Повідомлень: 3648

2019-10-14 15:27  
marinich
питання вирішувалось тут: https://toloka.to/t104151#1123216

sergiyko.5 
Забанено
Забанено


З нами з: 25.02.16
Востаннє: 29.10.20
Повідомлень: 3648

2019-10-21 12:42  
Додав всі серії до повного сезону. Приємного перегляду!
FIFA93 
Новенький


З нами з: 15.06.11
Востаннє: 10.04.21
Повідомлень: 19

2019-10-21 15:48  
Дякую!!!!!!!
U_A_5 
Новенький


З нами з: 07.01.17
Востаннє: 10.04.21
Повідомлень: 7

2019-10-22 18:44  
Доброго вечора!щось воно не той во.... нема завантаження-швидкості...нажаль Sad (1)
P.S. : Дякую! все виправилось Happy

sergiyko.5 
Забанено
Забанено


З нами з: 25.02.16
Востаннє: 29.10.20
Повідомлень: 3648

2019-10-22 18:58  
U_A_5
Мабуть що у вас не той во. Я роздаю -


Ваш часовий пояс: GMT + 2 Години

Нова тема   Відповісти