Принцеса Мален / Prinzessin Maleen (2015) 720p Ukr/Ger

Нові коментарі

Нова тема   Відповісти
Автор Повідомлення
Anonymous 







2019-10-06 16:36  
Принцеса Мален / Prinzessin Maleen (2015) 720p Ukr/Ger

Принцеса Мален / Prinzessin Maleen (2015) 720p Ukr/Ger


Жанр: казка, сімейний, романтичний
Країна: Німеччина



Кінокомпанія: Albolina Film
Режисер: Маттіас Штойрер
Актори: Клео фон Адельсгайм, Петер Фойзе, Гюнтер Марія Хальмер, Гец Отто, Маріелла Аренс, Торстен Ніндель, Лукас Райбер, Паула Пауль

Сюжет:
За мотивами казки братів Грімм "Діва Малейн" ( "Jungfrau Maleen»). Принцеса Мален і граф Конрад знають одне одного з дитинства. За такий довгий час їх дружнє спілкування переросло у взаємну любов. Конрад робить пропозицію Мален і вона дуже рада такому повороту в їх відносинах, але для початку їм належить отримати згоду її батька на шлюб. Мален і Конрад йдуть до батька принцеси, але він їм відмовляє, він вважає Конрада неспроможним нареченим для своєї дочки. На його думку, впливовий і багатий Раймунд із сусідньої країни є більш гідною парою для Мален, ніж збіднілих граф з сусіднього графства. Дівчина готова на багато що, аби не виходити заміж за Раймунда. Король забороняє їй надалі зустрічатися з Конрадом. Однак його рішення для закоханих не перешкода і незабаром Раймунд розкриває їх таємні зустрічі. Як покарання батько Мален вирішує посадити неслухняну доньку в башту на 7 років. По закінчення терміну ув'язнення вона виходить на довгоочікувану свободу. За цей час багато що змінилося. Її батько помер, а королівство після війни занепало. Але головні випробування для Мален були попереду...


Тривалість: 00:58:30
Якість:
Відео:
кодек:
розмір кадру: 1280 х 720
бітрейт: 3584 кб/с

Аудіо # 1:
мова: українська
переклад: професійний дубльований
кодек: 2.0
бітрейт: 192 кб/с

Аудіо # 2:
мова: німецька
переклад: оригінал
кодек: 2.0
бітрейт: 192 кб/с

Джерело озвучення:

(За запис звуку з ТБ дякуємо Krigg070 і Bohdan237, звук взято з релізу)
Info
General
Unique ID : 63124069159118835224328784716939039124 (0x2F7D40E568D799C7489C36D46E1A9194)
Complete name : Prinzessin Maleen (2015) 720p [Ukr_Ger] [Hurtom].
Format :
Format version : Version 4
File size : 1.62 GiB
Duration : 58 min 30 s
Overall bit rate : 3 967 kb/s
Movie name : Принцеса Мален (2015)
Encoded date : UTC 2019-10-06 13:05:58
Writing application : v37.0.0 ('Leave It') 32-bit
Writing library : libebml v1.3.9 + v1.5.2
Cover : Yes
Attachments : cover.jpg

Video
ID : 1
Format : AVC
Format/Info : Advanced Video Codec
Format profile : [email protected]
Format settings : CABAC / 3 Ref Frames
Format settings, CABAC : Yes
Format settings, ReFrames : 3 frames
Format settings, GOP : M=1, N=25
Codec ID : V_MPEG4/ISO/AVC
Duration : 58 min 30 s
Bit rate mode : Constant
Bit rate : 3 584 kb/s
Width : 1 280 pixels
Height : 720 pixels
Display aspect ratio : 16:9
Frame rate mode : Constant
Frame rate : 25.000 FPS
Standard : PAL
Color space : YUV
Chroma subsampling : 4:2:0
Bit depth : 8 bits
Scan type : Progressive
Bits/(Pixel*Frame) : 0.156
Stream size : 1.46 GiB (90%)
Language : German
Default : Yes
Forced : No
Color range : Limited

Audio #1
ID : 2
Format : AC-3
Format/Info : Audio Coding 3
Commercial name : Dolby Digital
Codec ID : A_AC3
Duration : 58 min 30 s
Bit rate mode : Constant
Bit rate : 192 kb/s
Channel(s) : 2 channels
Channel layout : L R
Sampling rate : 48.0 kHz
Frame rate : 31.250 FPS (1536 SPF)
Bit depth : 16 bits
Compression mode : Lossy
Stream size : 80.3 MiB (5%)
Language : Ukrainian
Service kind : Complete Main
Default : Yes
Forced : Yes

Audio #2
ID : 3
Format : LC
Format/Info : Advanced Audio Codec Low Complexity
Codec ID : A_AAC-2
Duration : 58 min 30 s
Bit rate : 192 kb/s
Channel(s) : 2 channels
Channel layout : L R
Sampling rate : 48.0 kHz
Frame rate : 46.875 FPS (1024 SPF)
Compression mode : Lossy
Stream size : 79.3 MiB (5%)
Language : German
Default : No
Forced : No
Скріншоти





Джерело:


 Трекер:    Зареєстрований   

Завантажити / скачати фільм українською



відео для новачків



 Зареєстрований:   2019-10-06 16:36
 Розмір:   1.62 GB 
 Оцінка фільму:   10/10 (Голосів: 6)
   
Інші релізи
   Принцеса Мален / Prinzessin Maleen (2015) Ukr/Ger drop_plz  3 / 0   829 MB   2018-07-19 14:58 
Ваш часовий пояс: GMT + 2 Години

Нова тема   Відповісти