Воно 2 / It Chapter Two (2019) 1080p Ukr/Eng | Sub Kor

Нові коментарі

Нова тема   Відповісти
Автор Повідомлення
Anonymous 







2019-10-06 12:35  
Воно 2 / It Chapter Two (2019) 1080p Ukr/Eng | Sub Kor


Альтернативний постер

«Ти знову пливеш»



Жанр: жахи
Країна: Канада, США



Кінокомпанія: KatzSmith Productions, Lin Pictures, New Line Cinema
Режисер: Андрес Мускетті
Актори: Джессіка Честейн, Джеймс МакЕвой, Білл Хейдер, Айзая Мустафа, Джеймс Ренсон, Енді Бін, Білл Скарсгард, Джейден Мартелл, Вайатт Олефф, Джек Грейзер

Сюжет:
Коли в містечку Деррі, штат Мен, починають пропадати діти, кілька хлопців стикаються зі своїми найбільшими страхами і змушені помірятися силами зі злісним клоуном Пеннівайз, чиї прояви жорстокості і список жертв йдуть в глиб століть.


Тривалість: 02:44:39
Якість: 1080p

Відео:
кодек:
розмір кадру: 1920x800
бітрейт: 4500 кб/с

Присутні вбудовані корейські субтитри


Аудіо # 1:
мова: українська
переклад: професійний дубльований
кодек: 2.0
бітрейт: 192 кб/с

Аудіо # 2:
мова: англійська
переклад: оригінал
кодек: 2.0
бітрейт: 192 кб/с

Субтитри:
мова: корейська
тип: вбудовані (жлорсткі)
Info
Код:
General
Complete name                            : It Chapter Two (2019) 1080p [UKR_ENG] [Hurtom].
Format                                   :
Format version                           : Version 4
File size                                : 5.64 GiB
Duration                                 : 2 h 44 min
Overall bit rate                         : 4 903 kb/s
Encoded date                             : UTC 2019-10-06 10:01:25
Writing application                      : v37.0.0 ('Leave It') 64-bit
Writing library                          : libebml v1.3.9 + v1.5.2

Video
ID                                       : 1
Format                                   : AVC
Format/Info                              : Advanced Video Codec
Format profile                           : [email protected]
Format settings                          : CABAC / 4 Ref Frames
Format settings, CABAC                   : Yes
Format settings, RefFrames               : 4 frames
Codec ID                                 : V_MPEG4/ISO/AVC
Duration                                 : 2 h 44 min
Bit rate                                 : 4 500 kb/s
Width                                    : 1 920 pixels
Height                                   : 800 pixels
Display aspect ratio                     : 2.40:1
Frame rate mode                          : Constant
Frame rate                               : 30.000 FPS
Color space                              : YUV
Chroma subsampling                       : 4:2:0
Bit depth                                : 8 bits
Scan type                                : Progressive
Bits/(Pixel*Frame)                       : 0.098
Stream size                              : 5.19 GiB (92%)
Writing library                          : core 148 r2748 97eaef2
Encoding settings                        : cabac=1 / ref=4 / deblock=1:0:0 / analyse=0x3:0x113 / me=umh / subme=9 / psy=1 / psy_rd=1.00:0.00 / mixed_ref=1 / me_range=16 / chroma_me=1 / trellis=2 / 8x8dct=1 / cqm=0 / deadzone=21,11 / fast_pskip=1 / chroma_qp_offset=-2 / threads=72 / lookahead_threads=6 / sliced_threads=0 / nr=0 / decimate=1 / interlaced=0 / bluray_compat=0 / constrained_intra=0 / bframes=3 / b_pyramid=2 / b_adapt=2 / b_bias=0 / direct=3 / weightb=1 / open_gop=0 / weightp=2 / keyint=250 / keyint_min=25 / scenecut=40 / intra_refresh=0 / rc_lookahead=50 / rc=abr / mbtree=1 / bitrate=4500 / ratetol=1.0 / qcomp=0.60 / qpmin=0 / qpmax=69 / qpstep=4 / ip_ratio=1.40 / aq=1:1.00
Language                                 : English
Default                                  : Yes
Forced                                   : No

Audio #1
ID                                       : 2
Format                                   : AC-3
Format/Info                              : Audio Coding 3
Commercial name                          : Dolby Digital
Codec ID                                 : A_AC3
Duration                                 : 2 h 44 min
Bit rate mode                            : Constant
Bit rate                                 : 192 kb/s
Channel(s)                               : 2 channels
Channel layout                           : L R
Sampling rate                            : 48.0 kHz
Frame rate                               : 31.250 FPS (1536 SPF)
Bit depth                                : 16 bits
Compression mode                         : Lossy
Stream size                              : 226 MiB (4%)
Language                                 : Ukrainian
Service kind                             : Complete Main
Default                                  : Yes
Forced                                   : No

Audio #2
ID                                       : 3
Format                                   : AC-3
Format/Info                              : Audio Coding 3
Commercial name                          : Dolby Digital
Codec ID                                 : A_AC3
Duration                                 : 2 h 44 min
Bit rate mode                            : Constant
Bit rate                                 : 192 kb/s
Channel(s)                               : 2 channels
Channel layout                           : L R
Sampling rate                            : 48.0 kHz
Frame rate                               : 31.250 FPS (1536 SPF)
Bit depth                                : 16 bits
Compression mode                         : Lossy
Stream size                              : 226 MiB (4%)
Language                                 : English
Service kind                             : Complete Main
Default                                  : No
Forced                                   : No
Скріншоти




Джерело:
Особиста оцінка: 0 - не дивився


 Трекер:    Зареєстрований   

Завантажити / скачати фільм українською



відео для новачків



 Зареєстрований:   2019-10-08 13:01
 Розмір:   5.64 GB 
 Оцінка фільму:   9.1/10 (Голосів: 34)
   
Інші релізи
   Воно 2 / It Chapter Two (2019) Ukr/Eng | Sub Kor antik_2008  14 / 2   2.5 GB   2019-10-08 13:00 
   Воно 2 / It Chapter Two (2019) AVC Ukr/Eng | Sub Kor 11FrYkT  58 / 0   1.79 GB   2019-10-06 12:23 
bot 
робот


З нами з: 30.09.07
Востаннє: 26.05.05
Повідомлень: 22333

2019-10-08 13:01  
Тему перенесено з Анонси релізів до форуму Фільми в HD


antik_2008

Fridrixt 
Новенький


З нами з: 16.06.19
Востаннє: 08.10.19
Повідомлень: 1

2019-10-08 14:41  
Не буду качати!!!
А коли буде нормальне - без цих "вшитих субтитрів"? Неможливо ж дивитися!..

підпільник 
VIP


З нами з: 11.04.12
Востаннє: 23.10.19
Повідомлень: 317

2019-10-08 15:03  
Anonymous написано:
Присутні вбудовані корейські субтитри

де скріншоти?

Anonymous 







2019-10-08 15:53  
підпільник написано:
підпільник

де напис Скріншоти )

Fridrixt написано:
А коли буде нормальне - без цих "вшитих субтитрів"? Неможливо ж дивитися!..

пізніше

uaxpasha 
VIP


З нами з: 05.08.12
Востаннє: 21.10.19
Повідомлень: 267

2019-10-08 19:36  
Anonymous написано:
жлорсткі

Було б зручно побачити хоча б один скріншот з ними

Anonymous 







2019-10-08 19:51  

SHEVA2018 
Новенький


З нами з: 24.09.18
Востаннє: 20.10.19
Повідомлень: 17

2019-10-08 23:23  
Гарне завершення що і казати!!! Дякую за реліз
BuTaJIu4eK 
Новенький


З нами з: 30.08.11
Востаннє: 22.10.19
Повідомлень: 2

2019-10-09 09:34  
bot написано:
Присутні вбудовані корейські субтитри

Ці субтитри тільки на англійські написи,
вони рідко з'являються в кадрі.

Kamper 
Свій


З нами з: 21.01.13
Востаннє: 22.10.19
Повідомлень: 70

2019-10-10 00:15  
саби не заважають
Night_STALKER 
Новенький


З нами з: 28.09.11
Востаннє: 22.10.19
Повідомлень: 2

2019-10-10 18:47  
краще набратись терпіння та дочекатись кращого релізу від itunes. В даній версії панорамні кадри не синхронізовано і картинка так би мовити "підторможує" (явно не 25 кадр/сек). Принаймні на великій діагоналі 65 це дуже помітно і псує враження від перегляду. Мені вистачило хвилин 5...Чекатиму кращого варіанту:без "корейців" та без підторможень
ppk21 
Поважний учасник


З нами з: 28.02.09
Востаннє: 19.10.19
Повідомлень: 153

2019-10-11 14:03  
Фільм утричі гірший за попередній. Просто банальне експлуатування успіху першої частини. Якщо бачили перший - то можна глянути продовження. Якщо не подивитесь - то нічого не втратите.
deni_Al 
Новенький


З нами з: 05.08.09
Востаннє: 22.10.19
Повідомлень: 7

2019-10-12 16:07  
ppk21 написано:
Просто банальне експлуатування успіху першої частини

Яке експлуатування? Фільм майже повністю знятий по книзі, яка так само складається з двох частин

Ваш часовий пояс: GMT + 2 Години

Нова тема   Відповісти