Воно 2 / It Chapter Two (2019) 1080p Ukr/Eng | Sub Eng

Нові коментарі

Нова тема   Відповісти
Автор Повідомлення
Anonymous 







2019-10-06 12:35  
Воно 2 / It Chapter Two (2019) 1080p Ukr/Eng | Sub Eng


Альтернативний постер

«Ти знову пливеш»



Жанр: жахи
Країна: Канада, США



Кінокомпанія: KatzSmith Productions, Lin Pictures, New Line Cinema
Режисер: Андрес Мускетті
Актори: Джессіка Честейн, Джеймс МакЕвой, Білл Хейдер, Айзая Мустафа, Джеймс Ренсон, Енді Бін, Білл Скарсгард, Джейден Мартелл, Вайатт Олефф, Джек Грейзер

Сюжет:
Коли в містечку Деррі, штат Мен, починають пропадати діти, кілька хлопців стикаються зі своїми найбільшими страхами і змушені помірятися силами зі злісним клоуном Пеннівайз, чиї прояви жорстокості і список жертв йдуть в глиб століть.


Тривалість: 02:49:25
Якість: 1080p

Відео:
кодек:
розмір кадру: 1920x804
бітрейт: ~14.0 мб/с

Аудіо # 1:
мова: українська
переклад: професійний дубльований | студія Postmodern
кодек: 5.1
бітрейт: 384 кб/с

Аудіо # 2:
мова: англійська
переклад: оригінал
кодек: 5.1
бітрейт: 640 кб/с

Субтитри # 1: (Forced)
мова: українська
тип: програмні (м'які)
формат: *.srt

Субтитри # 2: (SDH)
мова: англійська
тип: програмні (м'які)
формат: *.srt
Info
Код:
General
Complete name                            : It Chapter Two (2019) 1080p [Ukr_Eng].
Format                                   :
Format version                           : Version 4
File size                                : 17.7 GiB
Duration                                 : 2 h 49 min
Overall bit rate                         : 15.0 Mb/s
Encoded date                             : UTC 2019-11-29 12:02:51
Writing application                      : v30.1.0 ('Forever And More') 64-bit
Writing library                          : libebml v1.3.6 + v1.4.9
Cover                                    : Yes
Attachments                              : cover.jpg

Video
ID                                       : 1
Format                                   : AVC
Format/Info                              : Advanced Video Codec
Format profile                           : [email protected]
Format settings                          : CABAC / 5 Ref Frames
Format settings, CABAC                   : Yes
Format settings, RefFrames               : 5 frames
Codec ID                                 : V_MPEG4/ISO/AVC
Duration                                 : 2 h 49 min
Bit rate                                 : 14.0 Mb/s
Width                                    : 1 920 pixels
Height                                   : 804 pixels
Display aspect ratio                     : 2.40:1
Frame rate mode                          : Constant
Frame rate                               : 23.976 (24000/1001) FPS
Color space                              : YUV
Chroma subsampling                       : 4:2:0
Bit depth                                : 8 bits
Scan type                                : Progressive
Bits/(Pixel*Frame)                       : 0.377
Stream size                              : 16.5 GiB (93%)
Title                                    : MTeam
Writing library                          : core 157 r2938 2b00a84 [email protected] Mod
Encoding settings                        : cabac=1 / ref=5 / deblock=1:-3:-3 / analyse=0x3:0x133 / me=umh / subme=10 / psy=1 / psy_rd=1.05:0.00 / mixed_ref=1 / me_range=32 / chroma_me=1 / trellis=2 / 8x8dct=1 / cqm=0 / deadzone=21,11 / fast_pskip=0 / chroma_qp_offset=-2 / threads=12 / lookahead_threads=2 / sliced_threads=0 / nr=0 / decimate=0 / interlaced=0 / bluray_compat=0 / constrained_intra=0 / bframes=8 / b_pyramid=2 / b_adapt=2 / b_bias=0 / direct=3 / weightb=1 / open_gop=0 / weightp=2 / keyint=250 / keyint_min=24 / scenecut=40 / intra_refresh=0 / rc_lookahead=250 / rc=crf / mbtree=0 / crf=16.1 / qcomp=0.60 / qpmin=0 / qpmax=69 / qpstep=4 / vbv_maxrate=62500 / vbv_bufsize=78125 / crf_max=0.0 / nal_hrd=none / filler=0 / ip_ratio=1.30 / pb_ratio=1.20 / aq=3:0.80
Language                                 : English
Default                                  : Yes
Forced                                   : No
Color range                              : Limited
Color primaries                          : BT.709
Matrix coefficients                      : BT.709

Audio #1
ID                                       : 2
Format                                   : AC-3
Format/Info                              : Audio Coding 3
Commercial name                          : Dolby Digital
Codec ID                                 : A_AC3
Duration                                 : 2 h 49 min
Bit rate mode                            : Constant
Bit rate                                 : 384 kb/s
Channel(s)                               : 6 channels
Channel layout                           : L R C LFE Ls Rs
Sampling rate                            : 48.0 kHz
Frame rate                               : 31.250 FPS (1536 SPF)
Bit depth                                : 16 bits
Compression mode                         : Lossy
Stream size                              : 465 MiB (3%)
Title                                    : , 5.1, 384 Kbps
Language                                 : Ukrainian
Service kind                             : Complete Main
Default                                  : Yes
Forced                                   : No

Audio #2
ID                                       : 3
Format                                   : AC-3
Format/Info                              : Audio Coding 3
Commercial name                          : Dolby Digital
Codec ID                                 : A_AC3
Duration                                 : 2 h 49 min
Bit rate mode                            : Constant
Bit rate                                 : 640 kb/s
Channel(s)                               : 6 channels
Channel layout                           : L R C LFE Ls Rs
Sampling rate                            : 48.0 kHz
Frame rate                               : 31.250 FPS (1536 SPF)
Bit depth                                : 16 bits
Compression mode                         : Lossy
Stream size                              : 776 MiB (4%)
Title                                    : , 5.1, 640 Kbps
Language                                 : English
Service kind                             : Complete Main
Default                                  : No
Forced                                   : No

Text #1
ID                                       : 4
Format                                   : UTF-8
Codec ID                                 : S_TEXT/UTF8
Codec ID/Info                            : UTF-8 Plain Text
Duration                                 : 2 h 48 min
Bit rate                                 : 1 b/s
Count of elements                        : 66
Stream size                              : 2.33 KiB (0%)
Title                                    : Forced
Language                                 : Ukrainian
Default                                  : Yes
Forced                                   : No

Text #2
ID                                       : 5
Format                                   : UTF-8
Codec ID                                 : S_TEXT/UTF8
Codec ID/Info                            : UTF-8 Plain Text
Duration                                 : 2 h 44 min
Bit rate                                 : 60 b/s
Count of elements                        : 2828
Stream size                              : 72.8 KiB (0%)
Title                                    : SDH
Language                                 : English
Default                                  : No
Forced                                   : No

Menu
00:00:00.000                             : en:Chapter 01
00:09:10.341                             : en:Chapter 02
00:19:06.354                             : en:Chapter 03
00:27:00.744                             : en:Chapter 04
00:37:51.227                             : en:Chapter 05
00:46:19.986                             : en:Chapter 06
00:55:46.802                             : en:Chapter 07
01:05:36.474                             : en:Chapter 08
01:17:19.134                             : en:Chapter 09
01:29:21.565                             : en:Chapter 10
01:41:02.974                             : en:Chapter 11
01:49:11.336                             : en:Chapter 12
01:59:33.833                             : en:Chapter 13
02:05:31.774                             : en:Chapter 14
02:14:25.933                             : en:Chapter 15
02:22:43.889                             : en:Chapter 16
02:32:57.168                             : en:Chapter 17
02:42:15.643                             : en:Chapter 18
02:44:52.508                             : en:Chapter 19
Скріншоти




Джерело:
Особиста оцінка: 8 - мені сподобалося


 Трекер:    Зареєстрований   

Завантажити / скачати фільм українською



відео для новачків



 Зареєстрований:   2019-11-29 15:38
 Розмір:   17.73 GB 
 Оцінка фільму:   8.9/10 (Голосів: 81)
   
Інші релізи
   Воно 2 / It Chapter Two (2019) AVC Ukr/Eng | Sub Eng 11FrYkT  9 / 0   3.1 GB   2019-12-02 11:34 
   Воно 2 / It Chapter Two (2019) 720p Ukr/Eng | Sub Eng 11FrYkT  8 / 0   5.32 GB   2019-12-02 11:17 
   Воно 2 / It Chapter Two (2019) Remux 1080p Ukr/Eng | Sub Eng antik_2008  3 / 0   28.83 GB   2019-12-02 08:17 
   Воно 2 / It Chapter Two (2019) UHD Remux 4K 2160p Ukr/Eng | Sub Eng antik_2008  3 / 2   68.77 GB   2019-12-01 11:54 
   Воно 2 / It Chapter Two (2019) Ukr/Eng antik_2008  5 / 0   3.01 GB   2019-12-01 03:08 
SHEVA2018 
Частий відвідувач


З нами з: 24.09.18
Востаннє: 30.07.20
Повідомлень: 34

2019-10-08 23:23  
Гарне завершення що і казати!!! Дякую за реліз
Night_STALKER 
Новенький


З нами з: 28.09.11
Востаннє: 28.07.20
Повідомлень: 4

2019-10-10 18:47  
краще набратись терпіння та дочекатись кращого релізу від itunes. В даній версії панорамні кадри не синхронізовано і картинка так би мовити "підторможує" (явно не 25 кадр/сек). Принаймні на великій діагоналі 65 це дуже помітно і псує враження від перегляду. Мені вистачило хвилин 5...Чекатиму кращого варіанту:без "корейців" та без підторможень
ppk21 
Поважний учасник


З нами з: 28.02.09
Востаннє: 08.08.20
Повідомлень: 161

2019-10-11 14:03  
Фільм утричі гірший за попередній. Просто банальне експлуатування успіху першої частини. Якщо бачили перший - то можна глянути продовження. Якщо не подивитесь - то нічого не втратите.
deni_Al 
Новенький


З нами з: 05.08.09
Востаннє: 07.08.20
Повідомлень: 7

2019-10-12 16:07  
ppk21 написано:
Просто банальне експлуатування успіху першої частини

Яке експлуатування? Фільм майже повністю знятий по книзі, яка так само складається з двох частин

Kumcheg1995 
Частий відвідувач


З нами з: 05.01.17
Востаннє: 06.08.20
Повідомлень: 42

2019-10-26 16:27  
коли буде вже без корейських субтитрів ?
Білий_Вовк 
Забанено
Забанено


З нами з: 22.09.19
Востаннє: 15.01.20
Повідомлень: 24

2019-10-26 23:31  
Kumcheg1995 написано:
коли буде вже без корейських субтитрів ?

Орієнтовно 20.11.

PuMa.ua 
VIP


З нами з: 29.08.08
Востаннє: 08.08.20
Повідомлень: 439

2019-11-19 19:07  
Білий_Вовк
5.1 доріжка вже в мережі, чекаємо на оновлення...

Anonymous 







2019-11-19 21:57  
Реліз оновлено на кращу якість звуку і відео.

Strider477 
Свій


З нами з: 29.10.11
Востаннє: 07.08.20
Повідомлень: 56

2019-11-19 22:33  
Нарешті! Додайте, будь ласка, швидкість.
Electroz 
Відео Гуртом - підтримка та поширення
Відео Гуртом - підтримка та поширення


З нами з: 18.09.14
Востаннє: 08.08.20
Повідомлень: 3966

2019-11-19 23:55  
Anonymous написано:
[AMAZON Version]

Для чого писати в заголовку?

awtozaz 
Новенький


З нами з: 17.09.17
Востаннє: 05.08.20
Повідомлень: 4

2019-11-19 23:58  
Вельмишановне панство, коли вже буде нормальна швидкість??? Дайте хто небуть відповідь(((
Anonymous 







2019-11-20 00:01  
Electroz написано:
Для чого писати в заголовку?

звичайна версія є теж , цей реліз з амазона, деяким людям це важливо

awtozaz написано:
Вельмишановне панство, коли вже буде нормальна швидкість??? Дайте хто небуть відповідь(((

незабаром

awtozaz 
Новенький


З нами з: 17.09.17
Востаннє: 05.08.20
Повідомлень: 4

2019-11-20 00:06  
Anonymous
Добродію, дякую, чекаю!

Apple 
Свій


З нами з: 13.07.08
Востаннє: 07.08.20
Повідомлень: 131

2019-11-20 01:54  
awtozaz
down speed: 25.7 MB/s Happy
Нормальна?)

Завантажило за 6 хв.

Akio Furukawa 
Свій


З нами з: 02.11.19
Востаннє: 08.08.20
Повідомлень: 88

2019-11-25 00:25  
Зовсім ніяке порівняно з класикою 1990 року. Купа бу-спецефектів, натомість практично неможливо відстежити сюжетну лінію, бо події якісь уривчасті, імпульсивні та слабко пов'язані.
5/10

ron_ 
Частий відвідувач


З нами з: 03.02.11
Востаннє: 02.08.20
Повідомлень: 38

2019-11-26 22:26  
Переглядом цього "фільму" лише змарнував час. Безглуздий шлаковий фільм.
Anonymous 







2019-11-29 15:39  
Торент файл оновлено . Заміна відео на

Жока 
Забанено
Забанено


З нами з: 29.11.19
Востаннє: 07.12.19
Повідомлень: 35

2019-11-30 18:12  
Це фіаско. Навіть роль самого Кінга не прикольнула.
zz_PamaxA_zz 
Свій


З нами з: 07.05.10
Востаннє: 31.01.20
Повідомлень: 89

2019-12-06 23:24  
Оце гів... "кіно" зайшло б, якби не відверто дебільна кінцівка.
Ваш часовий пояс: GMT + 2 Години

Нова тема   Відповісти