[ЗБІР КОШТІВ] Психопаспорт 3 / Psycho-Pass 3 (01-03 з 08) (2019) 720р Ukr/Jap | Sub Ukr

Нові коментарі

Нова тема   Відповісти
Автор Повідомлення
FBRUA 
Модератор розділу аніме


З нами з: 09.07.13
Востаннє: 13.12.19
Повідомлень: 2179

2019-10-05 17:37  
Психопаспорт 3 / Psycho-Pass 3 (2019) 720p Ukr/Jap | Sub Ukr


НА ЦЕЙ ПРОЕКТ ПРОВОДИТЬСЯ ЗБІР КОШТІВ



Вікове обмеження: 16+

Жанр: трилер, фантастика
Країна: Японія



Кіностудія / кінокомпанія: Production I.G
Період трансляції: з 24.10.2019 по ...
Режисер: Шіотані Наойоші
Автор оригіналу: Уробучі Ґен
Сейю: Секі Томоказу, Ханазава Кана, Ноджіма Кенджі, Арімото Кінрю та інші.

Опис:
Боротьба зі злочинністю триває. Скількох ворогів ідеального суспільства доведеться знищити цього разу? У новому сезоні нас чекають нові головні герої: Шіндо Арата і Кей Михаїл Ігнатов, які не вірять всьому, що їм кажуть, і самі шукають істину в світі, нав'язаному їм системою.


Кількість серій: 8 (1 серія/~1год.).

Якість:
Контейнер: .
Відео:
кодек:
розмір кадру: 1280x720
бітрейт: ~2500 кбіт

Аудіо # 1:
мова: українська
озвучення: двоголосе закадрове
кодек: 2.0
бітрейт: 192 кбіт

Аудіо # 2:
мова: японська
переклад: оригінал
кодек: 2.0
бітрейт: 128 кбіт

Субтитри # 1:
мова: українська (тільки написи)
тип: форсовані, програмні (м'які)
формат: *.

Субтитри # 2:
мова: українська (повні)
тип: програмні (м'які)
формат: *.
Info
General
Unique ID : 230091768875822306983155984496688545449 (0xAD1A101144C05D24C03BC44C8DD2BEA9)
Complete name : D:\Anime\Psycho-Pass 3 [] [720p]\Psycho-Pass.S03E01.Laelaps.Calling.720p.
Format :
Format version : Version 4
File size : 1.26 GiB
Duration : 45 min 50 s
Overall bit rate : 3 947 kb/s
Movie name : 01. Laelaps Calling
Encoded date : UTC 2019-10-30 20:37:37
Writing application : v26.0.0 ('In The Game') 64-bit
Writing library : libebml v1.3.6 + v1.4.9
Attachments : 14722.otf / tahoma.ttf / CRC35.otf / BarnaulGrotesk.otf / Arsenal-Regular.otf

Video
ID : 1
Format : AVC
Format/Info : Advanced Video Codec
Format profile : [email protected]
Format settings : CABAC / 4 Ref Frames
Format settings, CABAC : Yes
Format settings, Reference : 4 frames
Codec ID : V_MPEG4/ISO/AVC
Duration : 45 min 49 s
Bit rate mode : Constant
Bit rate : 3 621 kb/s
Nominal bit rate : 6 000 kb/s
Width : 1 280 pixels
Height : 720 pixels
Display aspect ratio : 16:9
Frame rate mode : Constant
Frame rate : 23.976 (24000/1001) FPS
Color space : YUV
Chroma subsampling : 4:2:0
Bit depth : 8 bits
Scan type : Progressive
Bits/(Pixel*Frame) : 0.164
Stream size : 1.16 GiB (92%)
Title : 01. Laelaps Calling
Language : Japanese
Default : Yes
Forced : Yes
Color range : Limited
Color primaries : BT.709
Transfer characteristics : BT.709
Matrix coefficients : BT.709

Audio #1
ID : 2
Format : LC
Format/Info : Advanced Audio Codec Low Complexity
Codec ID : A_AAC-2
Duration : 45 min 50 s
Bit rate : 192 kb/s
Channel(s) : 2 channels
Channel layout : L R
Sampling rate : 48.0 kHz
Frame rate : 46.875 FPS (1024 SPF)
Compression mode : Lossy
Stream size : 63.0 MiB (5%)
Title : Gwean and Maslinka
Language : Ukrainian
Default : Yes
Forced : Yes

Audio #2
ID : 3
Format : LC
Format/Info : Advanced Audio Codec Low Complexity
Codec ID : A_AAC-2
Duration : 45 min 49 s
Bit rate : 128 kb/s
Channel(s) : 2 channels
Channel layout : L R
Sampling rate : 48.0 kHz
Frame rate : 46.875 FPS (1024 SPF)
Compression mode : Lossy
Stream size : 42.0 MiB (3%)
Title : Original
Language : Japanese
Default : No
Forced : No

Text #1
ID : 4
Format :
Codec ID : S_TEXT/
Codec ID/Info : Advanced Sub Station Alpha
Duration : 45 min 38 s
Bit rate : 91 b/s
Count of elements : 96
Compression mode : Lossless
Stream size : 30.4 KiB (0%)
Title : Signs by MadGuy
Language : Ukrainian
Default : Yes
Forced : Yes

Text #2
ID : 5
Format :
Codec ID : S_TEXT/
Codec ID/Info : Advanced Sub Station Alpha
Duration : 45 min 38 s
Bit rate : 239 b/s
Count of elements : 745
Compression mode : Lossless
Stream size : 80.0 KiB (0%)
Title : Subs by MadGuy
Language : Ukrainian
Default : No
Forced : No


Переклад: MadGuy
Ролі озвучили: Gwean & Maslinka

Всього потрібно зібрати 8000 грн. Ціна однієї серії - 1000 грн.





Авторський реліз (завантажувати можна без реєстрації)
 Трекер:    Зареєстрований   

Завантажити / скачати аніме українською



відео для новачків



 Зареєстрований:   2019-11-28 18:30
 Розмір:   3.38 GB 
 Оцінка аніме:   8.4/10 (Голосів: 7)
   
MadGuy 
Поважний учасник


З нами з: 05.08.11
Востаннє: 13.12.19
Повідомлень: 158

2019-10-06 15:31  
Подяка меценатам за 100 і 200 грн.
MadGuy 
Поважний учасник


З нами з: 05.08.11
Востаннє: 13.12.19
Повідомлень: 158

2019-10-06 22:39  
Подяка меценату за 300 грн.
MadGuy 
Поважний учасник


З нами з: 05.08.11
Востаннє: 13.12.19
Повідомлень: 158

2019-10-16 22:27  
Подяка меценату за 1000 грн.
MadGuy 
Поважний учасник


З нами з: 05.08.11
Востаннє: 13.12.19
Повідомлень: 158

2019-10-17 10:15  
Подяка меценату за 50 грн.
MadGuy 
Поважний учасник


З нами з: 05.08.11
Востаннє: 13.12.19
Повідомлень: 158

2019-10-20 11:56  
Подяка меценату за 50 грн.
bot 
робот


З нами з: 30.09.07
Востаннє: 26.05.05
Повідомлень: 22647

2019-10-31 00:01  
Тему перенесено з Анонси релізів до форуму Аніме


FBRUA

Arch Enemy 
VIP


З нами з: 30.08.12
Востаннє: 14.12.19
Повідомлень: 1751

2019-10-31 00:05  
Додано 1 серію.

MadGuy 
Поважний учасник


З нами з: 05.08.11
Востаннє: 13.12.19
Повідомлень: 158

2019-11-01 10:40  
Подяка мецентам за 10 і 100 грн.
MadGuy 
Поважний учасник


З нами з: 05.08.11
Востаннє: 13.12.19
Повідомлень: 158

2019-11-07 22:10  
Подяка меценату за 400 грн.
Arch Enemy 
VIP


З нами з: 30.08.12
Востаннє: 14.12.19
Повідомлень: 1751

2019-11-15 23:43  
Додано 2 серію.

MadGuy 
Поважний учасник


З нами з: 05.08.11
Востаннє: 13.12.19
Повідомлень: 158

2019-11-17 20:14  
Подяка меценатами за 200 і 40 грн.
MadGuy 
Поважний учасник


З нами з: 05.08.11
Востаннє: 13.12.19
Повідомлень: 158

2019-11-26 12:03  
Подяка меценату за 250 грн. Працюємо над серією, незабаром буде)
Arch Enemy 
VIP


З нами з: 30.08.12
Востаннє: 14.12.19
Повідомлень: 1751

2019-11-28 18:30  
Додано 3 серію.

MadGuy 
Поважний учасник


З нами з: 05.08.11
Востаннє: 13.12.19
Повідомлень: 158

2019-11-29 13:15  
Подяка меценату за 50 грн.
Ваш часовий пояс: GMT + 2 Години

Нова тема   Відповісти