Новобранець (Сезон 2, серії 1-2) / The Rookie (Season 2, edisodes 1-2) (2019)

Нові коментарі

Нова тема   Відповісти
Автор Повідомлення
DniproFilm 
VIP


З нами з: 10.10.18
Востаннє: 20.10.19
Повідомлень: 275

2019-10-05 13:08  
Новобранець (Сезон 2, серії 1-2) / The Rookie (Season 2, edisodes 1-2) (2019)

Новобранець (Сезон 2, серії 1-2) / The Rookie (Season 2, edisodes 1-2) (2019)


Жанр: детектив, драма, комедія
Країна: США


Кінокомпанія / телеканал: eOne Television, Perfectmon Pictures, ABC Studios / ABC
Режисер: Алексі Гоулі
Актори/ролі озвучують: Натан Філліон, Ерік Вінтер, Річард Ті Джоунс, Аліса Діаз, Меліса Оніл, Мерседес Мейсон та інші

Сюжет:
Починати з чистого аркуша завжди нелегко, особливо для мешканця маленького містечка Джона Нолана. Після інциденту, який перевернув його життя, він вирішив здійснити давню мрію і приєднатися до поліції Лос-Анджелеса. Старого новичка зустрічають із зрозумілим скептицизмом, проте життєвий досвід, наполегливість та почуття гумора дають Джону перевагу.


Тривалість: 1 серія: ~ 45 хв. (цілком серій: 13)
Перелік серій

01. Impact
02. The Night General
03. The Bet
04. Warriors and Guardians
05. - TBA -
06. - TBA -
07. - TBA -
08. - TBA -
09. - TBA -
10. - TBA -
11. - TBA -
12. - TBA -
13. - TBA -
Якість:
Відео:
кодек:
розмір кадру: 720x400
бітрейт: ~1800 кб/с

Аудіо # 1:
мова: українська
переклад: багатоголосий закадровий
кодек: 5.1
бітрейт: 384 кб/с

Джерело озвучення:
DniproFilm
Info

Video
ID : 0
Format : MPEG-4 Visual
Format profile : Advanced [email protected]
Format settings : BVOP2
Format settings, BVOP : 2
Format settings, QPel : No
Format settings, GMC : No warppoints
Format settings, Matrix : Default (H.263)
Muxing mode : Packed bitstream
Codec ID :
Codec ID/Hint :
Duration : 42 min 40 s
Bit rate : 1 778 kb/s
Width : 720 pixels
Height : 400 pixels
Display aspect ratio : 16:9
Frame rate : 23.976 (24000/1001) FPS
Color space : YUV
Chroma subsampling : 4:2:0
Bit depth : 8 bits
Scan type : Progressive
Compression mode : Lossy
Bits/(Pixel*Frame) : 0.257
Stream size : 543 MiB (82%)
Writing library : 67

Audio
ID : 1
Format : AC-3
Format/Info : Audio Coding 3
Commercial name : Dolby Digital
Codec ID : 2000
Duration : 42 min 40 s
Bit rate mode : Constant
Bit rate : 384 kb/s
Channel(s) : 6 channels
Channel positions : Front: L C R, Side: L R, LFE
Sampling rate : 48.0 kHz
Frame rate : 31.250 FPS (1536 SPF)
Bit depth : 16 bits
Compression mode : Lossy
Stream size : 117 MiB (18%)
Alignment : Aligned on interleaves
Interleave, duration : 42 ms (1.00 video frame)
Interleave, preload duratio : 512 ms
Service kind : Complete Main
Скріншоти




Авторський реліз (завантажувати можна без реєстрації)
 Трекер:    Зареєстрований   

Завантажити / скачати серіал українською



відео для новачків



 Зареєстрований:   2019-10-09 20:27
 Розмір:   1.3 GB 
 Оцінка серіалу:   9.6/10 (Голосів: 33)
   
SashaShy 
Новенький


З нами з: 19.09.09
Востаннє: 21.10.19
Повідомлень: 20

2019-10-05 14:03  
+10 до вашої карми) дуже дякую
chokur 
Новенький


З нами з: 03.07.17
Востаннє: 20.10.19
Повідомлень: 3

2019-10-05 17:49  
Ура. Дякую, що продовжили переклад та озвучення. Побіг дивитися. Happy
Phantom 
Відео Гуртом - підтримка та поширення
Відео Гуртом - підтримка та поширення


З нами з: 29.01.08
Востаннє: 21.10.19
Повідомлень: 430

2019-10-05 18:27  
Дякую, що продовжуєте робити !!!
DniproFilm 
VIP


З нами з: 10.10.18
Востаннє: 20.10.19
Повідомлень: 275

2019-10-09 20:28  
Додано 2 серію.

MaRsieN 
Новенький


З нами з: 08.12.12
Востаннє: 21.10.19
Повідомлень: 16

2019-10-09 23:17  
Дочекався Wide grin
SashaShy 
Новенький


З нами з: 19.09.09
Востаннє: 21.10.19
Повідомлень: 20

2019-10-09 23:55  
Несподівано, просто вирішив глянути чому не роздає першу серію, тому що нова вийшла)) а міг пропустити... дякую за 2 серію. Wide grin
Victor_Scythian 
VIP


З нами з: 06.01.17
Востаннє: 21.10.19
Повідомлень: 284

2019-10-10 04:54  
Якщо порівнювати із "КАСЛ" 5/10...
Ваш часовий пояс: GMT + 2 Години

Нова тема   Відповісти