Новобранець (Сезон 2, серії 1-2) / The Rookie (Season 2, edisodes 1-2) (2019) 720p Ukr/Eng

Нові коментарі

Нова тема   Відповісти
Автор Повідомлення
DniproFilm 
VIP


З нами з: 10.10.18
Востаннє: 20.10.19
Повідомлень: 275

2019-10-05 13:07  
Новобранець (Сезон 2, серії 1-2) / The Rookie (Season 2, edisodes 1-2) (2019) Ukr/Eng

Новобранець (Сезон 2, серії 1-2) / The Rookie (Season 2, edisodes 1-2) (2019) 720p Ukr/Eng


Жанр: детектив, драма, комедія
Країна: США


Кінокомпанія / телеканал: eOne Television, Perfectmon Pictures, ABC Studios / ABC
Режисер: Алексі Гоулі
Актори/ролі озвучують: Натан Філліон, Ерік Вінтер, Річард Ті Джоунс, Аліса Діаз, Меліса Оніл, Мерседес Мейсон та інші

Сюжет:
Починати з чистого аркуша завжди нелегко, особливо для мешканця маленького містечка Джона Нолана. Після інциденту, який перевернув його життя, він вирішив здійснити давню мрію і приєднатися до поліції Лос-Анджелеса. Старого новичка зустрічають із зрозумілим скептицизмом, проте життєвий досвід, наполегливість та почуття гумора дають Джону перевагу.


Тривалість: 1 серія: ~ 45 хв. (цілком серій: 13)
Перелік серій

01. Impact
02. The Night General
03. The Bet
04. Warriors and Guardians
05. - TBA -
06. - TBA -
07. - TBA -
08. - TBA -
09. - TBA -
10. - TBA -
11. - TBA -
12. - TBA -
13. - TBA -
Якість:
Відео:
кодек:
розмір кадру: 1280x720
бітрейт: ~4000 кб/с

Аудіо # 1:
мова: українська
переклад: багатоголосий закадровий
кодек: 5.1
бітрейт: 384 кб/с

Аудіо # 2:
мова: англійська
переклад: оригінал
кодек: 5.1
бітрейт: 640 кб/с

Джерело озвучення:
DniproFilm
Info

Video
ID : 1
Format : AVC
Format/Info : Advanced Video Codec
Format profile : [email protected]
Format settings : CABAC / 4 Ref Frames
Format settings, CABAC : Yes
Format settings, ReFrames : 4 frames
Codec ID : V_MPEG4/ISO/AVC
Duration : 42 min 40 s
Bit rate : 3 944 kb/s
Width : 1 280 pixels
Height : 720 pixels
Display aspect ratio : 16:9
Frame rate mode : Constant
Frame rate : 23.976 (24000/1001) FPS
Color space : YUV
Chroma subsampling : 4:2:0
Bit depth : 8 bits
Scan type : Progressive
Bits/(Pixel*Frame) : 0.178
Stream size : 1.18 GiB (79%)
Language : English
Default : Yes
Forced : No
Color range : Limited
Color primaries : BT.709
Transfer characteristics : BT.709
Matrix coefficients : BT.709

Audio #1
ID : 2
Format : AC-3
Format/Info : Audio Coding 3
Commercial name : Dolby Digital
Codec ID : A_AC3
Duration : 42 min 40 s
Bit rate mode : Constant
Bit rate : 384 kb/s
Channel(s) : 6 channels
Channel positions : Front: L C R, Side: L R, LFE
Sampling rate : 48.0 kHz
Frame rate : 31.250 FPS (1536 SPF)
Bit depth : 16 bits
Compression mode : Lossy
Stream size : 117 MiB (8%)
Title : DniproFilm
Language : Ukrainian
Service kind : Complete Main
Default : Yes
Forced : No

Audio #2
ID : 3
Format : AC-3
Format/Info : Audio Coding 3
Commercial name : Dolby Digital
Codec ID : A_AC3
Duration : 42 min 40 s
Bit rate mode : Constant
Bit rate : 640 kb/s
Channel(s) : 6 channels
Channel positions : Front: L C R, Side: L R, LFE
Sampling rate : 48.0 kHz
Frame rate : 31.250 FPS (1536 SPF)
Bit depth : 16 bits
Compression mode : Lossy
Stream size : 195 MiB (13%)
Language : English
Service kind : Complete Main
Default : No
Forced : No
Скріншоти




Авторський реліз (завантажувати можна без реєстрації)
 Трекер:    Зареєстрований   

Завантажити / скачати серіал українською



відео для новачків



 Зареєстрований:   2019-10-09 20:27
 Розмір:   2.97 GB 
 Оцінка серіалу:   9.8/10 (Голосів: 9)
   
DavidRammstler 
Новенький


З нами з: 10.05.12
Востаннє: 20.10.19
Повідомлень: 3

2019-10-06 12:27  
Доброго дня.
Дякую.

DniproFilm 
VIP


З нами з: 10.10.18
Востаннє: 20.10.19
Повідомлень: 275

2019-10-09 20:28  
Увага! Додано 2 серію.

Ваш часовий пояс: GMT + 2 Години

Нова тема   Відповісти