Новобранець (Сезон 2, серії 1-10) / The Rookie (Season 2, edisodes 1-10) (2019) 1080p Ukr/Eng

Нові коментарі

Нова тема   Відповісти
Автор Повідомлення
DniproFilm 
VIP


З нами з: 10.10.18
Востаннє: 13.12.19
Повідомлень: 308

2019-10-05 12:07  
Новобранець (Сезон 2, серії 1-10) / The Rookie (Season 2, edisodes 1-10) (2019) 1080p Ukr/Eng

Новобранець (Сезон 2, серії 1-10) / The Rookie (Season 2, edisodes 1-10) (2019) 1080p Ukr/Eng


Жанр: детектив, драма, комедія
Країна: США



Кінокомпанія / телеканал: eOne Television, Perfectmon Pictures, ABC Studios / ABC
Режисер: Алексі Гоулі
Актори/ролі озвучують: Натан Філліон, Ерік Вінтер, Річард Ті Джоунс, Аліса Діаз, Меліса Оніл, Мерседес Мейсон та інші

Сюжет:
Починати з чистого аркуша завжди нелегко, особливо для мешканця маленького містечка Джона Нолана. Після інциденту, який перевернув його життя, він вирішив здійснити давню мрію і приєднатися до поліції Лос-Анджелеса. Старого новачка зустрічають із зрозумілим скептицизмом, проте життєвий досвід, наполегливість та почуття гумору дають Джону перевагу.


Тривалість: 1 серія: ~ 45 хв. (цілком серій: 20)
Перелік серій

01. Impact
02. The Night General
03. The Bet
04. Warriors and Guardians
05. Tough Love
06. Fallout
07. Safety
08. Clean Cut
09. Breaking Point
10. The Dark Side
11. - TBA -
12. - TBA -
13. - TBA -
14. - TBA -
15. - TBA -
16. - TBA -
17. - TBA -
18. - TBA -
19. - TBA -
20. - TBA -
Якість:
Відео:
кодек:
розмір кадру: 1920x1080
бітрейт: ~7000 кб/с

Аудіо # 1:
мова: українська
переклад: багатоголосий закадровий
кодек: 5.1
бітрейт: 384 кб/с

Аудіо # 2:
мова: англійська
переклад: оригінал
кодек: 5.1
бітрейт: 640 кб/с

Джерело озвучення:
DniproFilm
Info

Video
ID : 1
Format : AVC
Format/Info : Advanced Video Codec
Format profile : [email protected]
Format settings : CABAC / 4 Ref Frames
Format settings, CABAC : Yes
Format settings, ReFrames : 4 frames
Codec ID : V_MPEG4/ISO/AVC
Duration : 42 min 40 s
Bit rate : 6 903 kb/s
Width : 1 920 pixels
Height : 1 080 pixels
Display aspect ratio : 16:9
Frame rate mode : Constant
Frame rate : 23.976 (24000/1001) FPS
Color space : YUV
Chroma subsampling : 4:2:0
Bit depth : 8 bits
Scan type : Progressive
Bits/(Pixel*Frame) : 0.139
Stream size : 2.06 GiB (87%)
Language : English
Default : Yes
Forced : No
Color range : Limited
Color primaries : BT.709
Transfer characteristics : BT.709
Matrix coefficients : BT.709

Audio #1
ID : 2
Format : AC-3
Format/Info : Audio Coding 3
Commercial name : Dolby Digital
Codec ID : A_AC3
Duration : 42 min 40 s
Bit rate mode : Constant
Bit rate : 384 kb/s
Channel(s) : 6 channels
Channel positions : Front: L C R, Side: L R, LFE
Sampling rate : 48.0 kHz
Frame rate : 31.250 FPS (1536 SPF)
Bit depth : 16 bits
Compression mode : Lossy
Stream size : 117 MiB (5%)
Title : DniproFilm
Language : Ukrainian
Service kind : Complete Main
Default : Yes
Forced : No

Audio #2
ID : 3
Format : AC-3
Format/Info : Audio Coding 3
Commercial name : Dolby Digital
Codec ID : A_AC3
Duration : 42 min 40 s
Bit rate mode : Constant
Bit rate : 640 kb/s
Channel(s) : 6 channels
Channel positions : Front: L C R, Side: L R, LFE
Sampling rate : 48.0 kHz
Frame rate : 31.250 FPS (1536 SPF)
Bit depth : 16 bits
Compression mode : Lossy
Stream size : 195 MiB (8%)
Language : English
Service kind : Complete Main
Default : No
Forced : No
Скріншоти




Авторський реліз (завантажувати можна без реєстрації)
 Трекер:    Зареєстрований   

Завантажити / скачати серіал українською



відео для новачків



 Зареєстрований:   2019-12-09 20:50
 Розмір:   23.68 GB 
 Оцінка серіалу:   9.8/10 (Голосів: 23)
   
Cartwright 
Поважний учасник


З нами з: 23.03.13
Востаннє: 13.12.19
Повідомлень: 248

2019-10-05 17:04  
Дякую!
Cumva 
Свій


З нами з: 03.07.12
Востаннє: 13.12.19
Повідомлень: 70

2019-10-08 12:32  
Дякую!

PS: в першому сезоні якість перекладу просідала місцями,
цей епізод поки що на висоті - так тримати! Happy

DniproFilm 
VIP


З нами з: 10.10.18
Востаннє: 13.12.19
Повідомлень: 308

2019-10-09 19:28  
Додано 2 серію.

DniproFilm 
VIP


З нами з: 10.10.18
Востаннє: 13.12.19
Повідомлень: 308

2019-10-21 21:21  
Додано 3-4 серії.

DniproFilm 
VIP


З нами з: 10.10.18
Востаннє: 13.12.19
Повідомлень: 308

2019-10-28 21:40  
Додано 5 серію.

DniproFilm 
VIP


З нами з: 10.10.18
Востаннє: 13.12.19
Повідомлень: 308

2019-11-04 22:58  
Додано 6 серію.

DniproFilm 
VIP


З нами з: 10.10.18
Востаннє: 13.12.19
Повідомлень: 308

2019-11-12 18:37  
Додано 7 серію.

DniproFilm 
VIP


З нами з: 10.10.18
Востаннє: 13.12.19
Повідомлень: 308

2019-11-19 20:58  
Додано 8 серію.

DniproFilm 
VIP


З нами з: 10.10.18
Востаннє: 13.12.19
Повідомлень: 308

2019-12-02 21:52  
Додано 9 серію.

DniproFilm 
VIP


З нами з: 10.10.18
Востаннє: 13.12.19
Повідомлень: 308

2019-12-09 20:50  
Додано 10 серію.

Uriah 
Новенький


З нами з: 27.02.08
Востаннє: 14.12.19
Повідомлень: 12

2019-12-09 21:08  
Дякую!
Ваш часовий пояс: GMT + 2 Години

Нова тема   Відповісти