Добрий динозавр / The Good Dinosaur (2015) 1080p H.265 Ukr/Eng | Sub Eng

Нові коментарі

Нова тема   Відповісти
Автор Повідомлення
Anonymous 







2019-10-05 11:11  
Добрий динозавр / The Good Dinosaur (2015) 1080p H.265 Ukr/Eng | Sub Eng

Добрий динозавр / The Good Dinosaur (2015) 1080p H.265 Ukr/Eng | Sub Eng


Жанр:анімація, комедія, пригоди, сімейний
Країна: США
Кінокомпанія: Walt Disney Pictures, Pixar Animation Studios
Режисер: Пітер Сон
Актори: Джеффрі Райт, Маркус Скрібнер, Реймонд Очоа, Джек Брайт, Пітер Сон, Стів Зан, Сем Елліотт...

Сюжет:
Тільки уявіть, як виглядала б наша планета, якби астероїд, що знищив динозаврів, пролетів повз? Вони б не вимерли і жили серед нас зараз. Апатозавр по імені Арло незграбний і боязкий, але має велике добре серце. Він заводить незвичайного друга - людську дитину, яку звуть Спот. Хлопчик дикуватий, але дуже розумний. І хоча ця дивна парочка не відразу стає товаришами, вони допомагають один одному. Під час подорожі по суворих і загадкових місцях, Арло вчиться протистояти своїм страхам і дізнається, на що він дійсно здатний. Спот і динозавр зустрінуться із різними тваринами на своєму шляху, але не всі будуть до них доброзичливі.

Тривалість: 01:33:50
Якість:

Відео:
кодек: H.265 (HEVC)
розмір кадру: 1920 x 804
бітрейт: 7 937 кб/с
бітова глибина: 10 біт

Увага! Перед завантаженням переконайтесь, що ваш пристрій відтворення (та/або ПЗ) підтримує H.265 (HEVC)

Аудіо # 1:
мова: українська
переклад: професійний дубльований
кодек: 5.1
бітрейт: 1510 кб/с

Аудіо # 2:
мова: англійська
переклад: оригінал
кодек: 5.1
бітрейт: 1510 кб/с

Субтитри # 1: (Forced)
мова: українська
тип: програмні (м'які)
формат: *.srt

Субтитри # 2-4: (Full, SDH, Commentary)
мова: англійська
тип: програмні (м'які)
формат: *.srt


Info
Код:
General
Unique ID                                : 196085777070274058987037504373685834285 (0x9384BF399C25B9781EF0890E47DD522D)
Complete name                            : The Good Dinosaur (2015) 1080p H.265 [UKR_ENG] [Hurtom].
Format                                   :
Format version                           : Version 4
File size                                : 7.18 GiB
Duration                                 : 1 h 33 min
Overall bit rate                         : 11.0 Mb/s
Movie name                               : Добрий динозавр / The Good Dinosaur (2015)
Encoded date                             : UTC 2019-10-05 00:57:34
Writing application                      : v20.0.0 ('I Am The Sun') 64-bit
Writing library                          : libebml v1.3.5 + v1.4.8
Cover                                    : Yes
Attachments                              : Cover.jpg

Video
ID                                       : 1
Format                                   : HEVC
Format/Info                              : High Efficiency Video Coding
Format profile                           : Main [email protected]@High
Codec ID                                 : V_MPEGH/ISO/HEVC
Duration                                 : 1 h 33 min
Bit rate                                 : 7 937 kb/s
Width                                    : 1 920 pixels
Height                                   : 804 pixels
Display aspect ratio                     : 2.40:1
Frame rate mode                          : Constant
Frame rate                               : 23.976 (23976/1000) FPS
Original frame rate                      : 23.976 (24000/1001) FPS
Color space                              : YUV
Chroma subsampling                       : 4:2:0
Bit depth                                : 10 bits
Bits/(Pixel*Frame)                       : 0.214
Stream size                              : 5.20 GiB (72%)
Title                                    : Добрий динозавр / The Good Dinosaur (2015)
Writing library                          : x265 3.1.2+1-76650bab70f9:[Windows][MSVC 1922][64 bit] 10bit
Encoding settings                        : cpuid=1111039 / frame-threads=3 / numa-pools=12 / wpp / no-pmode / no-pme / no-psnr / no-ssim / log-level=2 / input-csp=1 / input-res=1920x804 / interlace=0 / total-frames=126562 / level-idc=41 / high-tier=1 / uhd-bd=0 / ref=5 / no-allow-non-conformance / no-repeat-headers / annexb / no-aud / no-hrd / info / hash=0 / no-temporal-layers / open-gop / min-keyint=23 / keyint=240 / gop-lookahead=0 / bframes=9 / b-adapt=2 / b-pyramid / bframe-bias=0 / rc-lookahead=60 / lookahead-slices=4 / scenecut=40 / radl=0 / no-splice / no-intra-refresh / ctu=32 / min-cu-size=8 / rect / amp / max-tu-size=32 / tu-inter-depth=4 / tu-intra-depth=4 / limit-tu=1 / rdoq-level=2 / dynamic-rd=0.00 / no-ssim-rd / signhide / no-tskip / nr-intra=0 / nr-inter=0 / no-constrained-intra / no-strong-intra-smoothing / max-merge=4 / limit-refs=2 / limit-modes / me=3 / subme=7 / merange=57 / temporal-mvp / weightp / weightb / no-analyze-src-pics / deblock=-3:-3 / no-sao / no-sao-non-deblock / rd=6 / no-early-skip / no-rskip / no-fast-intra / no-tskip-fast / no-cu-lossless / no-b-intra / no-splitrd-skip / rdpenalty=0 / psy-rd=2.00 / psy-rdoq=1.00 / no-rd-refine / no-lossless / cbqpoffs=0 / crqpoffs=0 / rc=crf / crf=19.0 / qcomp=0.70 / qpstep=4 / stats-write=0 / stats-read=0 / vbv-maxrate=50000 / vbv-bufsize=50000 / vbv-init=0.9 / crf-max=0.0 / crf-min=0.0 / ipratio=1.40 / pbratio=1.30 / aq-mode=1 / aq-strength=1.00 / no-cutree / zone-count=0 / no-strict-cbr / qg-size=32 / no-rc-grain / qpmax=69 / qpmin=0 / no-const-vbv / sar=1 / overscan=0 / videoformat=5 / range=0 / colorprim=1 / transfer=1 / colormatrix=1 / chromaloc=0 / display-window=0cll=0,0 / min-luma=0 / max-luma=1023 / log2-max-poc-lsb=8 / vui-timing-info / vui-hrd-info / slices=1 / no-opt-qp-pps / no-opt-ref-list-length-pps / no-multi-pass-opt-rps / scenecut-bias=0.05 / no-opt-cu-delta-qp / no-aq-motion / no-hdr / no-hdr-opt / no-dhdr10-opt / no-idr-recovery-sei / analysis-reuse-level=5 / scale-factor=0 / refine-intra=0 / refine-inter=0 / refine-mv=0 / refine-ctu-distortion=0 / no-limit-sao / ctu-info=0 / no-lowpass-dct / refine-analysis-type=0 / copy-pic=1 / max-ausize-factor=1.0 / no-dynamic-refine / no-single-sei / no-hevc-aq / no-svt / no-field / qp-adaptation-range=1.00
Default                                  : Yes
Forced                                   : No
Color range                              : Limited
Color primaries                          : BT.709
Transfer characteristics                 : BT.709
Matrix coefficients                      : BT.709

Audio #1
ID                                       : 2
Format                                   :
Format/Info                              : Digital Theater Systems
Codec ID                                 : A_DTS
Duration                                 : 1 h 33 min
Bit rate mode                            : Constant
Bit rate                                 : 1 509 kb/s
Channel(s)                               : 6 channels
Channel layout                           : C L R Ls Rs LFE
Sampling rate                            : 48.0 kHz
Frame rate                               : 93.750 FPS (512 SPF)
Bit depth                                : 24 bits
Compression mode                         : Lossy
Delay relative to video                  : 850 ms
Stream size                              : 1 013 MiB (14%)
Title                                    : / 5.1 Ch / 1509 kbps / ПД
Language                                 : Ukrainian
Default                                  : Yes
Forced                                   : Yes

Audio #2
ID                                       : 3
Format                                   :
Format/Info                              : Digital Theater Systems
Codec ID                                 : A_DTS
Duration                                 : 1 h 33 min
Bit rate mode                            : Constant
Bit rate                                 : 1 509 kb/s
Channel(s)                               : 6 channels
Channel layout                           : C L R Ls Rs LFE
Sampling rate                            : 48.0 kHz
Frame rate                               : 93.750 FPS (512 SPF)
Bit depth                                : 24 bits
Compression mode                         : Lossy
Stream size                              : 1 011 MiB (14%)
Title                                    : / 5.1 Ch / 1509 kbps / Original
Language                                 : English
Default                                  : No
Forced                                   : No

Text #1
ID                                       : 4
Format                                   : UTF-8
Codec ID                                 : S_TEXT/UTF8
Codec ID/Info                            : UTF-8 Plain Text
Duration                                 : 1 min 13 s
Bit rate                                 : 14 b/s
Count of elements                        : 3
Stream size                              : 129 Bytes (0%)
Title                                    : Forced
Language                                 : Ukrainian
Default                                  : Yes
Forced                                   : Yes

Text #2
ID                                       : 5
Format                                   : UTF-8
Codec ID                                 : S_TEXT/UTF8
Codec ID/Info                            : UTF-8 Plain Text
Duration                                 : 1 h 21 min
Bit rate                                 : 23 b/s
Count of elements                        : 477
Stream size                              : 14.1 KiB (0%)
Title                                    : Full
Language                                 : English
Default                                  : No
Forced                                   : No

Text #3
ID                                       : 6
Format                                   : UTF-8
Codec ID                                 : S_TEXT/UTF8
Codec ID/Info                            : UTF-8 Plain Text
Duration                                 : 1 h 23 min
Bit rate                                 : 32 b/s
Count of elements                        : 885
Stream size                              : 20.0 KiB (0%)
Title                                    : SDH
Language                                 : English
Default                                  : No
Forced                                   : No

Text #4
ID                                       : 7
Format                                   : UTF-8
Codec ID                                 : S_TEXT/UTF8
Codec ID/Info                            : UTF-8 Plain Text
Duration                                 : 1 h 26 min
Bit rate                                 : 140 b/s
Count of elements                        : 1810
Stream size                              : 89.1 KiB (0%)
Title                                    : Commentary
Language                                 : English
Default                                  : No
Forced                                   : No

Menu
00:00:00.000                             : :1. Asteroid
00:03:37.966                             : :2. Arlo Is Born
00:06:16.459                             : :3. Chores
00:08:14.160                             : :4. Make Your Mark
00:12:12.605                             : :5. Fireflies
00:14:33.913                             : :6. Meet Spot
00:17:42.352                             : :7. Arlo Steps Up
00:21:10.644                             : :8. Swept Away
00:22:58.167                             : :9. Wilderness
00:26:41.057                             : :10. Helpless
00:29:02.615                             : :11. Spot Investigates
00:33:10.363                             : :12. Snake Attack
00:35:28.668                             : :13. Pet Collector
00:38:14.458                             : :14. Working Together
00:41:08.840                             : :15. Orphan Spot
00:45:42.947                             : :16. Storm Fear
00:47:47.947                             : :17. Ambush
00:51:48.271                             : :18. T-Rexes
00:55:46.967                             : :19. Rustlers
01:00:22.952                             : :20. Campfire
01:03:59.001                             : :21. Arlo Herds
01:05:27.213                             : :22. Above the Clouds
01:07:11.777                             : :23. Spot Taken
01:11:06.427                             : :24. Pappa's Help
01:13:43.377                             : :25. Into the Storm
01:16:01.430                             : :26. Flash Flood
01:19:08.493                             : :27. Goodbye Spot
01:23:56.864                             : :28. Back Home
01:26:01.113                             : :29. End Credits
Світлини




Джерело: &
Особиста оцінка: 0 - не дивився


 Трекер:    Зареєстрований   

Завантажити / скачати мультфільм українською



відео для новачків



 Зареєстрований:   2019-10-05 11:11
 Розмір:   7.18 GB 
 Оцінка мультфільму:   10/10 (Голосів: 4)
   
Ваш часовий пояс: GMT + 2 Години

Нова тема   Відповісти