Співаючи під дощем / Singin' in the Rain (1952) Remux 1080p Ukr/Eng | Sub Eng

Нові коментарі

Нова тема   Відповісти
Автор Повідомлення
MakRA 
VIP


З нами з: 11.11.18
Востаннє: 24.09.20
Повідомлень: 1120

2019-10-05 00:33  
Співаючи під дощем / Singin' in the Rain (1952) Remux 1080p Ukr/Eng | Sub Eng


Альтернативні обкладинки та постери:






Жанр: мюзикл, комедія, романтичний, музичний
Країна: США



Кінокомпанія: Metro-Goldwyn-Mayer (MGM), Loew's Inc., RKO-Pathe Studios Inc.
Режисер: [Стенлі Донен [Stanley Donen], Джин Келлі [Gene Kelly]
Актори: Джин Келлі [Gene Kelly], Дональд О`Коннор [Donald O'Connor], Деббі Рейнолдс [Debbie Reynolds], Джин Гейґен [Jean Hagen], Міллард Мітчелл [Millard Mitchell], Сід Черісс [Cyd Charisse], Дуґлас Фовлі [Douglas Fowley], Ріта Морено [Rita Moreno], Дон Аддамс [Dawn Addams]

Сюжет:
«Співаючи під дощем» (англ. Singin' in the Rain) — американський мюзикл 1952 року за участю Джина Келлі, Деббі Рейнольдс, Дональда О'Коннора та Джин Гейґен, який з часом здобув статус одного з найвизначніших фільмів американського кіно. Фільм очолював список 100 найкращих музичних фільмів «Серії 100 років» Американського інституту кіномистецтва, складений у 2006 році, а також зайняв п'яте місце в списку найвизначніших американських фільмів тієї ж серії за 2007 рік. На 18 вересня 2018 року фільм займав 93-у позицію у списку "250 кращих фільмів за версією IMDb.

Історія про самовдоволеного ідола кіно Доні Локвуда і його партнерку, гламурну блондинку Ліну Ломонд. Їхню романтичну історію прагнуть зробити першим звуковим музичним фільмом за назвою "Танцуючий кавалер". Але є невелика проблема, його партнерка має жахливий верескливий голос. Дон вирішив виправити цю проблему, запросивши для цього свою подругу Кеті Селдон, з якою він познайомився випадково, ховаючись від своїх незліченних шанувальниць. Кеті повністю озвучує всю роль Ліни, залишаючись за кадром. На прем'єрі фільму це відкривається, і зрештою наступає веселий і радісний хеппі-енд.

Цікаві факти:

Головного героя фільму, Дона Локвуда, грає Джин Келлі. Він також був одним із режисерів разом із Стенлі Доненом, й головним хореографом. У наші часи його гра набула статусу класичної, однак він не був першим кандидатом на роль. Спочатку роль дали Говарду Кілу, і тільки, коли сценаристи вирішили змінити амплуа головного героя із типового для вестерна на водевільного танцюриста й співака, Джин Келлі отримав запрошення на зйомки в фільмі.

Роль головної героїні, Кейті Селден, зіграла Деббі Рейнольдс. Претендентками на роль інженю спочатку розглядалися також Джуді Гарланд, Кетрін Ґрейсон, Джейн Пауелл, Леслі Карон та Джун Еллісон. Однак режисер Стенлі Донен і Джин Келлі наголошували, що для них Деббі завжди була головною претенденткою. У фільмі Кейті Селдон дублює голос Ліни, проте насправді, в усіх сценах Джин Гаґен грала сама, вимовляючи слова своїм нормальним голосом. А от Деббі в піснях Would You? та You are My Lucky Star дублювала Бетті Ноєс, про яку навіть не було згадано в титрах.

Деббі Рейнольдс була гімнасткою, а не танцюристкою. Танцювальні номери давалися їй важко. Після зйомок пісні Good morning у неї кровоточили ноги. Джин Келлі ставився до неї жорстко. Одного разу Фред Астер побачив, як вона плаче під роялем, і дещо допоміг їй з танцем.

Роль приятеля головного героя Космо Брауна зіграв Дональд О'Коннор. Роль була написана для Оскара Леванта і відтворювала його веселий жартівливий характер.

Роль Ліни Ламонт, головного негативного персонажа, зіграла Джин Гейґен. Спочатку в постановників фільму були сподівання запросити на неї Джуді Голідей, але вона сама запропонувала Джин, яка на той час готувалася як її можлива підміна у бродвейській постановці «Народженої вчора». Гейґен щойно закінчила зйомки в «Асфальтових джунглях». Вона прочитала роль перед продюсером Артуром Фрідом, точнісінько скопіювавши свого персонажа з Джуді Голлідей, і одразу ж здобула роль.

Власника вигаданої кінокомпанії Monumental Pictures, Р. Ф. Сімпсона, зіграв Міллард Мітчелл. Персонаж дещо пародіює продюсера Артура Фріда, наприклад використовує його улюблені фрази.

Партнеркою Джина Келлі в балеті «Бродвейські мелодії» була Сід Чарісс. Ріта Морено зіграла Зелду Зандерс, подругу Ліни, яка донесла їй про дубляж. Вважається, що роль пародіює Клару Боу.

Нагороди та номінації:

-Номінація на премію "Оскар" за найкращу жіночу роль другого плану - Джин Гейґен (Jean Hagen)
-Номінація на премію "Оскар" за найкращий музичний супровід (мюзикл) - Ленні Гейтон (Lennie Hayton)
-Премія "Золотий Глобус" за найкраща чоловічу роль (комедія або мюзикл) - Дональд О`Коннор (Donald O'Connor)
-Номінація на премію "Золотий Глобус" за найкращий фільм (комедія або мюзикл)
-Номінація на премію "BAFTA" за найкращий фільм з будь-якої країни
-Номінація на премію Гільдії режисерів Америки за видатні досягнення в кіно - Стенлі Донен (Stanley Donen) та Джин Келлі (Gene Kelly)

У 1989 «Співаючи під дощем» був включений Бібліотекою Конгресу до списку культурно, історично та естетично значимих фільмів і обраний для довічного зберагання в Національному реєстрі фільмів. На сайті Rotten Tomatoes фільм має 100 % свіжість на основі рецензій 43 критиків.


Тривалість: 01:42:48
Якість: Remux 1080p
Відео:
кодек:
розмір кадру: 1920 х 1080
бітрейт: 29,8 Mб/с

Аудіо # 1:
мова: українська
переклад: двоголосий закадровий
кодек: 2.0
бітрейт: 192 кб/с
Про озвучення:
Ролі озвучили:Олена Узлюк і Ярослав Чорненький

Фільм перекладено і озвучено на студії телеканалу 1+1.
Аудіо # 2:
мова: англійська
переклад: оригінал
кодек: -HD MA 5.1
бітрейт: 2180 кб/с

Аудіо # 3:
мова: англійська
переклад: оригінал
кодек: 5.1
бітрейт: 384 кб/с

Аудіо # 4:
мова: англійська
переклад: коментарі акторів Деббі Рейнольдс, Дональда О'Коннора, Сіда Черісса, Кетлін Фрімен, режисера Стенлі Донена, сценаристів Бетті Комден та Адольфа Гріна
кодек: 2.0
бітрейт: 192 кб/с

Субтитри # 1: (Full)
мова: англійська
тип: програмні (м'які)
формат: *.srt

Субтитри # 2: (SDH)
мова: англійська
тип: програмні (м'які)
формат: *.srt

Субтитри # 3: (Colored)
мова: англійська
тип: програмні (м'які)
формат: *.srt
Info
General
Unique ID : 185173808144940948470543870431487998033 (0x8B4F2D9EA9BD143AFEF3245206C63851)
Complete name : E:\+Режисер Стенлі Донен [Stanley Donen]\Singin' in the Rain (1952) Remux 1080p UkrEng Sub Eng [Hurtom].
Format :
Format version : Version 4
File size : 23.6 GiB
Duration : 1 h 42 min
Overall bit rate mode : Variable
Overall bit rate : 32.8 Mb/s
Movie name : Співаючи під дощем / Singin' in the Rain (1952) Remux 1080p Ukr/Eng | Sub Eng [Hurtom]
Encoded date : UTC 2019-10-04 07:08:07
Writing application : v25.0.0 ('Prog Noir') 64-bit
Writing library : libebml v1.3.6 + v1.4.9
Cover : Yes
Attachments : cover.jpg

Video
ID : 1
Format : AVC
Format/Info : Advanced Video Codec
Format profile : [email protected]
Format settings : CABAC / 2 Ref Frames
Format settings, CABAC : Yes
Format settings, Reference fra : 2 frames
Codec ID : V_MPEG4/ISO/AVC
Duration : 1 h 42 min
Bit rate mode : Variable
Bit rate : 29.8 Mb/s
Width : 1 920 pixels
Height : 1 080 pixels
Display aspect ratio : 16:9
Frame rate mode : Constant
Frame rate : 23.976 (24000/1001) FPS
Color space : YUV
Chroma subsampling : 4:2:0
Bit depth : 8 bits
Scan type : Progressive
Bits/(Pixel*Frame) : 0.600
Stream size : 21.4 GiB (91%)
Title : Singin' in the Rain (1952) Remux 1080p Ukr/Eng | Sub Eng [Hurtom]
Language : Ukrainian
Default : Yes
Forced : Yes

Audio #1
ID : 2
Format : AC-3
Format/Info : Audio Coding 3
Commercial name : Dolby Digital
Codec ID : A_AC3
Duration : 1 h 42 min
Bit rate mode : Constant
Bit rate : 192 kb/s
Channel(s) : 2 channels
Channel layout : L R
Sampling rate : 48.0 kHz
Frame rate : 31.250 FPS (1536 SPF)
Bit depth : 16 bits
Compression mode : Lossy
Stream size : 141 MiB (1%)
Title : DVO [1+1] 2.0
Language : Ukrainian
Service kind : Complete Main
Default : Yes
Forced : Yes

Audio #2
ID : 3
Format : XLL
Format/Info : Digital Theater Systems
Commercial name : -HD Master Audio
Codec ID : A_DTS
Duration : 1 h 42 min
Bit rate mode : Variable
Bit rate : 2 180 kb/s
Channel(s) : 6 channels
Channel layout : C L R Ls Rs LFE
Sampling rate : 48.0 kHz
Frame rate : 93.750 FPS (512 SPF)
Bit depth : 24 bits
Compression mode : Lossless
Stream size : 1.57 GiB (7%)
Title : Original -HD MA 5.1
Language : English
Default : No
Forced : No

Audio #3
ID : 4
Format : AC-3
Format/Info : Audio Coding 3
Commercial name : Dolby Digital
Codec ID : A_AC3
Duration : 1 h 42 min
Bit rate mode : Constant
Bit rate : 384 kb/s
Channel(s) : 6 channels
Channel layout : L R C LFE Ls Rs
Sampling rate : 48.0 kHz
Frame rate : 31.250 FPS (1536 SPF)
Bit depth : 16 bits
Compression mode : Lossy
Stream size : 282 MiB (1%)
Title : Original 5.1
Language : English
Service kind : Complete Main
Default : No
Forced : No

Audio #4
ID : 5
Format : AC-3
Format/Info : Audio Coding 3
Commercial name : Dolby Digital
Codec ID : A_AC3
Duration : 1 h 42 min
Bit rate mode : Constant
Bit rate : 192 kb/s
Channel(s) : 1 channel
Channel layout : C
Sampling rate : 48.0 kHz
Frame rate : 31.250 FPS (1536 SPF)
Bit depth : 16 bits
Compression mode : Lossy
Stream size : 141 MiB (1%)
Title : Original 1.0 | Commentary by Debbie Reynolds, Donald O'Connor, Cyd Charisse, Kathleen Freeman, co-director Stanley Donen, screenwriters Betty Comden and Adolph Green, filmmaker Baz Luhrmann, and author/film historian Rudy Behlmer
Language : English
Service kind : Complete Main
Default : No
Forced : No

Text #1
ID : 6
Format : UTF-8
Codec ID : S_TEXT/UTF8
Codec ID/Info : UTF-8 Plain Text
Duration : 1 h 42 min
Bit rate : 65 b/s
Count of elements : 1397
Stream size : 49.1 KiB (0%)
Title : Eng (Full)
Language : English
Default : No
Forced : No

Text #2
ID : 7
Format : UTF-8
Codec ID : S_TEXT/UTF8
Codec ID/Info : UTF-8 Plain Text
Duration : 1 h 42 min
Bit rate : 68 b/s
Count of elements : 1472
Stream size : 51.2 KiB (0%)
Title : Eng (SDH)
Language : English
Default : No
Forced : No

Text #3
ID : 8
Format : UTF-8
Codec ID : S_TEXT/UTF8
Codec ID/Info : UTF-8 Plain Text
Duration : 1 h 42 min
Bit rate : 75 b/s
Count of elements : 1474
Stream size : 56.6 KiB (0%)
Title : Eng (Colored)
Language : English
Default : No
Forced : No
Скріншоти
Джерело: &
Висловлюю подяку п. m_yury, п. Tanat13 за наданий сирий звук, та п. karvai0 за зведення
Особиста оцінка: 10 - без зайвих вагань рекомендую всім!


Золотий реліз (завантажене не впливає на рейтинг)
 Трекер:    Зареєстрований   

Завантажити / скачати фільм українською



відео для новачків



 Зареєстрований:   2019-10-05 00:33
 Розмір:   23.55 GB 
 Оцінка фільму:   10/10 (Голосів: 11)
   
Інші релізи
Ваш часовий пояс: GMT + 2 Години

Нова тема   Відповісти