Ліга Європи 2019-2020 / Група B / 2 - тур / Лугано - Динамо Київ / Футбол 1 HD (03.10.2019)

Нові коментарі

Нова тема   Відповісти
Автор Повідомлення
Anonymous 







2019-10-04 18:38  
Ліга Європи 2019-2020 / Група B / 2 - тур / Лугано - Динамо Київ / Футбол 1 HD (03.10.2019)

Ліга Європи 2019-2020 / Група B / 2 - тур / Лугано - Динамо Київ / Футбол 1 HD (03.10.2019)


Телеканал: Футбол 1 HD
Опис:
Ліга Європи 2019-2020 / Група B / 2 - тур / Лугано _ Динамо Київ
Тривалість:
01:46:48
Якість:
Відео:
кодек:
розмір кадру: 1280x720
бітрейт: ~3300 кб/с

Аудіо:
мова: українська
переклад: одноголосий закадровий | Олександр Михайлюк, |
кодек: 2.0
бітрейт: 128 кб/с
Склади:
Скріншоти




Info
Код:

General
Complete name                            : Lugano_Dynamo.Kiev (03.10.2019) UKR.
Format                                   :
Format version                           : Version 4
File size                                : 2.62 GiB
Duration                                 : 1 h 46 min
Overall bit rate                         : 3 508 kb/s
Movie name                               : All Sport on RGFOOTBALL.NET
Writing application                      : Lavf57.62.100
Writing library                          : Lavf57.62.100
ErrorDetectionType                       : Per level 1

Video
ID                                       : 1
Format                                   : AVC
Format/Info                              : Advanced Video Codec
Format profile                           : [email protected]
Format settings                          : CABAC / 4 Ref Frames
Format settings, CABAC                   : Yes
Format settings, RefFrames               : 4 frames
Codec ID                                 : V_MPEG4/ISO/AVC
Duration                                 : 1 h 46 min
Bit rate                                 : 3 311 kb/s
Width                                    : 1 280 pixels
Height                                   : 720 pixels
Display aspect ratio                     : 16:9
Frame rate mode                          : Constant
Frame rate                               : 50.000 FPS
Color space                              : YUV
Chroma subsampling                       : 4:2:0
Bit depth                                : 8 bits
Scan type                                : Progressive
Bits/(Pixel*Frame)                       : 0.072
Stream size                              : 2.47 GiB (94%)
Writing library                          : core 148 r2744 b97ae06
Encoding settings                        : cabac=1 / ref=3 / deblock=1:-1:-1 / analyse=0x3:0x113 / me=hex / subme=7 / psy=1 / psy_rd=1.00:0.15 / mixed_ref=1 / me_range=16 / chroma_me=1 / trellis=1 / 8x8dct=1 / cqm=0 / deadzone=21,11 / fast_pskip=1 / chroma_qp_offset=-3 / threads=22 / lookahead_threads=3 / sliced_threads=0 / nr=0 / decimate=1 / interlaced=0 / bluray_compat=0 / constrained_intra=0 / bframes=3 / b_pyramid=2 / b_adapt=1 / b_bias=0 / direct=1 / weightb=1 / open_gop=0 / weightp=2 / keyint=250 / keyint_min=25 / scenecut=40 / intra_refresh=0 / rc_lookahead=40 / rc=crf / mbtree=1 / crf=21.5 / qcomp=0.60 / qpmin=0 / qpmax=69 / qpstep=4 / vbv_maxrate=5500 / vbv_bufsize=2000 / crf_max=23.0 / nal_hrd=none / filler=0 / ip_ratio=1.40 / aq=1:1.00
Default                                  : Yes
Forced                                   : No

Audio
ID                                       : 2
Format                                   : AC-3
Format/Info                              : Audio Coding 3
Commercial name                          : Dolby Digital
Codec ID                                 : A_AC3
Duration                                 : 1 h 46 min
Bit rate mode                            : Constant
Bit rate                                 : 128 kb/s
Channel(s)                               : 2 channels
Channel layout                           : L R
Sampling rate                            : 48.0 kHz
Frame rate                               : 31.250 FPS (1536 SPF)
Bit depth                                : 16 bits
Compression mode                         : Lossy
Delay relative to video                  : -20 ms
Stream size                              : 97.8 MiB (4%)
Writing library                          : Lavc57.72.100
Language                                 : Ukrainian
Service kind                             : Complete Main
Default                                  : No
Forced                                   : No
Джерело:
Особиста оцінка: 7 - моїй подрузі не сподобалося


Бронзовий реліз (на рейтинг впливає 75% завантаженого)
 Трекер:    Зареєстрований   

Завантажити / скачати торрент



відео для новачків



 Зареєстрований:   2019-10-04 18:38
 Розмір:   2.62 GB 
 Оцінка:   9/10 (Голосів: 1)
   
Ваш часовий пояс: GMT + 2 Години

Нова тема   Відповісти