Одинак / Le Solitaire (1987) 1080p Ukr/Fre | Sub Ukr/Eng

Нові коментарі

Нова тема   Відповісти
Автор Повідомлення
Anonymous 







2019-10-04 11:06  
Одинак / Le Solitaire (1987) 1080p Ukr/Fre | Sub Ukr/Eng

Одинак / Le Solitaire (1987) 1080p Ukr/Fre | Sub Ukr/Eng


Жанр: бойовик, кримінальний, драма, трилер
Країна: Франція
Кінокомпанія: Cerito Films
Режисер: Жак Дере
Актори: Жан-Поль Бельмондо, Жан-П'єр Мало, Мішель Бон, П'єр Вернье, Франсуа Дюнойе та інші.

Сюжет:
Поліцейські-напарники Стан і Сімон мріють піти у відставку й оселитися в тропічному раю на Карибських островах. Але одного дня, при спробі затримати в нічному клубі небезпечного вбивцю Шнайдера, Сімон гине під час перестрілки. Злочинцеві вдається сховатися. Стан бере на себе турботу про маленького сина Сімона і присягається за будь-яку ціну помститися вбивці свого друга... Лише через два роки йому вдається вислідити Шнайдера. Стан починає безжалісне полювання на злочинця, але через запекле суперництво між колегами-поліцейськими він вимушений діяти поодинці...

Тривалість: 01:32:06
Якість:

Відео:
кодек:
розмір кадру: 1920 x 1032
бітрейт: 11 001 кб/с

Аудіо # 1:
мова: українська
переклад: двоголосий закадровий
кодек: AC-3 2.0
бітрейт: 192 кб/с

Аудіо # 2:
мова: французька
переклад: оригінал
кодек: 2.0
бітрейт: 1510 кб/с

Субтитри # 1: (Full)
мова: українська
тип: програмні (м'які)
формат: *.srt

Субтитри # 2: (Full)
мова: англійська
тип: програмні (м'які)
формат: *.srt


Info
Код:
General
Unique ID                                : 65581994541216766691710769846652225415 (0x3156A1F9479D00938A06F7EA786FC787)
Complete name                            : Le Solitaire (1987) 1080p [UKR_ENG] [Hurtom].
Format                                   :
Format version                           : Version 4
File size                                : 8.17 GiB
Duration                                 : 1 h 32 min
Overall bit rate                         : 12.7 Mb/s
Movie name                               : Одинак / Le Solitaire (1987)
Encoded date                             : UTC 2019-10-03 22:03:00
Writing application                      : v20.0.0 ('I Am The Sun') 64-bit
Writing library                          : libebml v1.3.5 + v1.4.8
Cover                                    : Yes
Attachments                              : Cover.jpg

Video
ID                                       : 1
Format                                   : AVC
Format/Info                              : Advanced Video Codec
Format profile                           : [email protected]
Format settings                          : CABAC / 4 Ref Frames
Format settings, CABAC                   : Yes
Format settings, Reference frames        : 4 frames
Codec ID                                 : V_MPEG4/ISO/AVC
Duration                                 : 1 h 32 min
Bit rate                                 : 11.0 Mb/s
Width                                    : 1 920 pixels
Height                                   : 1 032 pixels
Display aspect ratio                     : 1.85:1
Frame rate mode                          : Constant
Frame rate                               : 25.000 FPS
Color space                              : YUV
Chroma subsampling                       : 4:2:0
Bit depth                                : 8 bits
Scan type                                : Progressive
Bits/(Pixel*Frame)                       : 0.222
Stream size                              : 7.08 GiB (87%)
Title                                    : Одинак / Le Solitaire (1987)
Writing library                          : core 146 r2538 121396c
Encoding settings                        : cabac=1 / ref=4 / deblock=1:-1:-1 / analyse=0x3:0x133 / me=umh / subme=11 / psy=1 / psy_rd=1.11:0.23 / mixed_ref=1 / me_range=32 / chroma_me=1 / trellis=2 / 8x8dct=1 / cqm=0 / deadzone=21,11 / fast_pskip=0 / chroma_qp_offset=-3 / threads=12 / lookahead_threads=3 / sliced_threads=0 / nr=0 / decimate=1 / interlaced=0 / bluray_compat=0 / constrained_intra=0 / bframes=12 / b_pyramid=2 / b_adapt=2 / b_bias=0 / direct=3 / weightb=1 / open_gop=0 / weightp=2 / keyint=250 / keyint_min=25 / scenecut=40 / intra_refresh=0 / rc_lookahead=60 / rc=2pass / mbtree=1 / bitrate=11000 / ratetol=1.0 / qcomp=0.60 / qpmin=0 / qpmax=69 / qpstep=4 / cplxblur=20.0 / qblur=0.5 / ip_ratio=1.40 / aq=1:1.00
Language                                 : French
Default                                  : Yes
Forced                                   : No

Audio #1
ID                                       : 2
Format                                   : AC-3
Format/Info                              : Audio Coding 3
Commercial name                          : Dolby Digital
Codec ID                                 : A_AC3
Duration                                 : 1 h 32 min
Bit rate mode                            : Constant
Bit rate                                 : 192 kb/s
Channel(s)                               : 2 channels
Channel layout                           : L R
Sampling rate                            : 48.0 kHz
Frame rate                               : 31.250 FPS (1536 SPF)
Bit depth                                : 16 bits
Compression mode                         : Lossy
Stream size                              : 126 MiB (2%)
Title                                    : / 2.0 Ch / 192 kbps / ДЗ / 1+1
Language                                 : Ukrainian
Service kind                             : Complete Main
Default                                  : Yes
Forced                                   : Yes

Audio #2
ID                                       : 3
Format                                   :
Format/Info                              : Digital Theater Systems
Codec ID                                 : A_DTS
Duration                                 : 1 h 32 min
Bit rate mode                            : Constant
Bit rate                                 : 1 509 kb/s
Channel(s)                               : 2 channels
Channel layout                           : L R
Sampling rate                            : 48.0 kHz
Frame rate                               : 93.750 FPS (512 SPF)
Bit depth                                : 24 bits
Compression mode                         : Lossy
Stream size                              : 994 MiB (12%)
Title                                    : / 5.1 Ch / 1509 kbps / Original
Language                                 : French
Default                                  : No
Forced                                   : No

Text #1
ID                                       : 4
Format                                   : UTF-8
Codec ID                                 : S_TEXT/UTF8
Codec ID/Info                            : UTF-8 Plain Text
Duration                                 : 1 h 29 min
Bit rate                                 : 72 b/s
Count of elements                        : 929
Stream size                              : 47.1 KiB (0%)
Title                                    : Full
Language                                 : Ukrainian
Default                                  : Yes
Forced                                   : No

Text #2
ID                                       : 5
Format                                   : UTF-8
Codec ID                                 : S_TEXT/UTF8
Codec ID/Info                            : UTF-8 Plain Text
Duration                                 : 1 h 29 min
Bit rate                                 : 41 b/s
Count of elements                        : 929
Stream size                              : 27.3 KiB (0%)
Title                                    : Full
Language                                 : English
Default                                  : No
Forced                                   : No

Menu
00:00:00.000                             : en:00:00:00.000
00:09:10.840                             : en:00:09:10.840
00:18:43.480                             : en:00:18:43.480
00:24:02.000                             : en:00:24:02.000
00:30:31.560                             : en:00:30:31.560
00:38:46.400                             : en:00:38:46.400
00:50:38.520                             : en:00:50:38.520
01:01:39.680                             : en:01:01:39.680
01:10:20.160                             : en:01:10:20.160
01:16:31.600                             : en:01:16:31.600
01:21:40.760                             : en:01:21:40.760
01:30:11.480                             : en:01:30:11.480
Світлини




Джерело: &
Особиста оцінка: 0 - не дивився


Срібний реліз (на рейтинг впливає 50% завантаженого)
 Трекер:    Зареєстрований   

Завантажити / скачати фільм українською



відео для новачків



 Зареєстрований:   2019-10-04 11:06
 Розмір:   8.17 GB 
 Оцінка фільму:   10/10 (Голосів: 2)
   
Інші релізи
   Одинак / Le Solitaire (1987) 720p Ukr/Fre | Sub Ukr/Eng -Star-Lord-  2 / 0   7.02 GB   2019-10-04 11:04 
   Одинак / Le Solitaire (1987) Ukr/Fre sokeel  4 / 0   1.34 GB   2017-09-22 22:20 
   Одинак / Le Solitaire (1987) Fre | Sub Ukr sokeel  2 / 1   1.44 GB   2017-09-22 15:55 
   Одинак / Le Solitaire (1987) Ukr/Fra rooster  5 / 1   1.57 GB   2010-08-04 15:59 
Ваш часовий пояс: GMT + 2 Години

Нова тема   Відповісти